<?xml version="1.0" standalone="no"?>
<!DOCTYPE svg PUBLIC "-//W3C//DTD SVG 1.1//EN" "http://www.w3.org/Graphics/SVG/1.1/DTD/svg11.dtd" >
<svg xmlns="http://www.w3.org/2000/svg">
<metadata>Generated by IcoMoon</metadata>
<defs>
<font id="icomoon" horiz-adv-x="1024">
<font-face units-per-em="1024" ascent="960" descent="-64" />
<missing-glyph horiz-adv-x="1024" />
<glyph unicode="&#x20;" horiz-adv-x="512" d="" />
<glyph unicode="&#xe900;" glyph-name="arrow" d="M163.742 642.206c12.314 12.832 31.583 13.998 45.16 3.5l3.89-3.5 299.191-311.746 299.191 311.746c12.314 12.832 31.582 13.998 45.163 3.5l3.891-3.5c12.314-12.831 13.431-32.909 3.354-47.058l-3.354-4.053-323.72-337.318c-12.314-12.831-31.582-13.997-45.16-3.5l-3.89 3.5-323.716 337.318c-13.545 14.114-13.545 36.997 0 51.111z" />
<glyph unicode="&#xe901;" glyph-name="bear-face" d="M128.542 870.583c-177.53-50.426-79.46-317.352-4.216-323.774-17.012-84.435-26.64-169.291-25.284-255.648 0.71-45.34 102.748-116.849 210.701-172.070 63.232-92.674 168.23-92.851 202.272-93.692 34.039 0.841 139.040 1.020 202.274 93.692 107.949 55.221 209.988 126.729 210.699 172.070 1.355 86.357-8.273 171.213-25.286 255.648 75.247 6.421 173.314 273.348-4.215 323.774-56.866-2.924-111.211-32.304-164.343-74.446-95.849 39.388-144.8 41.262-219.127 41.262s-123.279-1.874-219.13-41.26c-53.131 42.14-107.477 71.52-164.343 74.444zM138.396 770.727c12.114 0.192 34.474-11.25 53.618-29.328 6.724-6.351-45.832-102.099-53.636-100.316-9.18 2.099-29.97 96.57-7.45 126.636 1.49 1.988 4.078 2.954 7.468 3.008zM885.632 770.727c3.39-0.054 5.98-1.020 7.469-3.008 22.519-30.066 1.73-124.536-7.45-126.636-7.806-1.786-60.361 93.965-53.636 100.316 19.142 18.080 41.504 29.52 53.617 29.328zM363.932 606.551c34.914 0.608 61.372-48.89 84.083-89.152-107.14-31.757-165.15 34.221-115.505 75.554 11.206 9.329 21.647 13.427 31.422 13.6v-0.002zM660.096 606.551c9.777-0.171 20.215-4.269 31.422-13.598 49.647-41.333-8.361-107.311-115.503-75.554 22.709 40.26 49.167 89.76 84.081 89.152zM512.015 456.896c34.639-0.446 73.651-19.134 60.393-73.035-2.886-11.744-25.030-17.233-42.394-19.401v-17.943c199.767-82.253 159.13-277.118-17.999-277.118-177.131 0-217.769 194.865-18.001 277.118v17.943c-17.359 2.167-39.505 7.657-42.394 19.401-13.259 53.901 25.754 72.589 60.395 73.035z" />
<glyph unicode="&#xe902;" glyph-name="bitcoin" d="M874.039 810.040c-96.704 96.704-225.28 149.96-362.039 149.96s-265.336-53.256-362.040-149.96c-96.704-96.704-149.96-225.28-149.96-362.040s53.258-265.335 149.96-362.039c96.702-96.708 225.28-149.961 362.040-149.961s265.335 53.257 362.039 149.961c96.704 96.704 149.961 225.28 149.961 362.039s-53.257 265.334-149.961 362.040zM672 352c0-51.371-30.434-95.744-74.21-116.105-3.524-1.643-5.79-5.163-5.79-9.054v-33.937c0-17.233-13.244-32.060-30.455-32.87-18.377-0.862-33.545 13.781-33.545 31.966v21.999c0 5.521-4.48 10.001-10.001 10.001h-43.998c-5.521 0-10.001-4.48-10.001-10.001v-21.094c0-17.233-13.244-32.060-30.455-32.87-18.377-0.862-33.545 13.781-33.545 31.966v21.999c0 5.521-4.478 10.001-10 10.001h-53.096c-17.23 0-32.056 13.244-32.868 30.451-0.866 18.377 13.776 33.549 31.964 33.549h22c5.522 0 10 4.48 10 10.001v299.999c0 5.522-4.478 10-10 10h-21.096c-17.23 0-32.056 13.242-32.868 30.452-0.866 18.376 13.776 33.548 31.964 33.548h54c5.522 0 10 4.478 10 10v21.096c0 17.232 13.242 32.058 30.455 32.868 18.377 0.864 33.545-13.778 33.545-31.964v-22c0-5.522 4.48-10 10.001-10h43.998c5.521 0 10.001 4.478 10.001 10v21.096c0 17.232 13.244 32.058 30.455 32.868 18.377 0.864 33.545-13.778 33.545-31.964v-34.842c0-3.89 2.266-7.412 5.79-9.052 43.776-20.36 74.21-64.734 74.21-116.106 0-34.569-13.79-65.963-36.143-89.011-3.789-3.908-3.789-10.069 0-13.973 22.353-23.053 36.143-54.447 36.143-89.015z" />
<glyph unicode="&#xe903;" glyph-name="brute" d="M896.049 888c-58.799-88.1-126.4-131.4-252.599-129.6-14.697 20.203-34.325 36.722-57.21 48.143s-48.341 17.404-74.191 17.437c-25.884-0.002-51.379-5.97-74.302-17.393-22.921-11.422-42.583-27.958-57.297-48.187-126.001-1.8-193.701 41.54-252.401 129.6-60.58-90.86 42.080-221.801 224.401-224.8 1.233-20.301 6.741-40.158 16.198-58.4-278.919-38.999-334.959-421.001-304.599-572.8h160c0 96 32 224 128 288l-32-288c0-32 128-32 128 0 0 64 32 128 64 128s64-64 64-128c0-32 128-32 128 0l-32 288c96-64 128-192 128-288h160c30.4 151.799-25.6 533.999-304.8 572.8 9.527 18.227 15.104 38.086 16.401 58.4 182.199 2.999 284.998 133.92 224.399 224.8zM384.049 712.399c26.999-31.398 54.4-62.598 96-80.399 0 0-45.801-31.401-64-17.399-20.201 15.799-32 97.798-32 97.798zM640.049 712.399c0 0-11.799-81.999-32-97.798-18.199-14.001-64 17.399-64 17.399 41.6 17.801 69.001 49.001 96 80.399z" />
<glyph unicode="&#xe904;" glyph-name="card" d="M938.666 637.866c0-28.16-23.040-51.2-51.2-51.2h-750.933c-28.16 0-51.2 23.040-51.2 51.2v0.429c0 97.706 78.933 176.639 176.64 176.639h499.628c97.706 0 177.066-79.36 177.066-177.068zM85.332 471.469v-213.76c0-97.709 78.933-176.64 176.64-176.64h499.628c97.706 0 177.066 79.36 177.066 177.066v213.334c0 28.16-23.040 51.2-51.2 51.2h-750.933c-28.16 0-51.2-23.040-51.2-51.2zM341.331 224h-85.332c-17.493 0-32 14.509-32 32 0 17.494 14.507 32 32 32h85.332c17.494 0 32-14.506 32-32 0-17.491-14.506-32-32-32zM618.666 224h-170.666c-17.494 0-32 14.509-32 32 0 17.494 14.506 32 32 32h170.666c17.494 0 32-14.506 32-32 0-17.491-14.506-32-32-32z" />
<glyph unicode="&#xe905;" glyph-name="chevron-down" d="M273.067 640l-59.733-64 298.667-320 298.667 319.999-59.733 64-238.933-255.999-238.933 256z" />
<glyph unicode="&#xe906;" glyph-name="coinp" horiz-adv-x="939" d="M776.759 882.752c-47.744 54.080-134.144 77.248-244.672 77.248h-320.77c-22.592 0-41.792-16.32-45.376-38.4l-133.566-840.384c-2.624-16.576 10.304-31.552 27.2-31.552h198.016l49.728 312.96-1.536-9.856c3.52 22.080 22.656 38.4 45.248 38.4h94.080c184.896 0 329.6 74.496 371.904 289.984 1.28 6.4 3.264 18.688 3.264 18.688 12.032 79.744-0.064 133.824-43.52 182.912zM870.396 659c-45.952-212.16-192.576-324.416-425.28-324.416h-84.353l-62.976-398.592h136.833c19.776 0 36.608 14.272 39.68 33.664l1.6 8.448 31.488 197.824 2.048 10.88c3.072 19.392 19.904 33.664 39.616 33.664h25.024c161.728 0 288.32 65.152 325.312 253.632 14.848 75.648 7.68 139.072-28.992 184.896z" />
<glyph unicode="&#xe907;" glyph-name="end" horiz-adv-x="1056" d="M919.501-64v887.578h-887.58l887.58-887.578z" />
<glyph unicode="&#xe908;" glyph-name="facebook" d="M42.75 445.286c0.050-211.187 152.679-391.002 359.979-424.098v300.032h-108.245v124.066h108.373v94.445c-4.844 44.752 10.348 89.353 41.457 121.708s74.91 49.108 119.526 45.716c32.021-0.52 63.962-3.39 95.573-8.586v-105.563h-53.931c-18.569 2.447-37.235-3.723-50.743-16.771s-20.395-31.562-18.718-50.326v-80.623h118.229l-18.901-124.109h-99.328v-299.989c224.188 35.648 381.397 241.66 357.739 468.783-23.663 227.128-219.917 395.859-446.579 383.957-226.666-11.902-404.395-200.271-404.431-428.642z" />
<glyph unicode="&#xe909;" glyph-name="Group" horiz-adv-x="1325" d="M1067.912 585.577c-16.444 209.212-191.958 374.423-405.323 374.423-182.513 0-339.185-118.543-389.737-291.433-144.203-50.056-242.733-186.669-242.733-341.037 0-199.27 162.138-361.412 361.412-361.412h587.294c174.381 0 316.235 141.854 316.235 316.235 0 142.261-93.515 264.373-227.147 303.224zM875.237 340.763l-180.706-180.706c-8.812-8.806-20.378-13.234-31.943-13.234s-23.13 4.427-31.937 13.234l-180.709 180.706c-12.92 12.92-16.806 32.349-9.803 49.245 7.002 16.851 23.492 27.874 41.743 27.874h90.353v180.706c0 49.875 40.478 90.353 90.353 90.353s90.353-40.478 90.353-90.353v-180.706h90.353c18.251 0 34.738-11.023 41.743-27.874 6.999-16.896 3.12-36.325-9.8-49.245z" />
<glyph unicode="&#xe90a;" glyph-name="internet" d="M0 478h212.772c1.97 75.11 11.154 145.87 26.47 210h-176.996c-33.876-63.23-57.818-134.48-62.246-210v0zM212.772 418.002h-212.772c4.428-75.52 28.37-146.77 62.246-210.002h176.998c-15.316 64.128-24.502 134.892-26.472 210.002zM482.010 478v210h-180.722c-16.42-63.552-26.364-134.956-28.538-210h209.26zM481.99 748v212c-65.694-18.348-123.886-102.286-162.29-212h162.29zM481.99-64v211.999h-162.29c38.404-109.711 96.596-193.649 162.29-211.999zM541.998 960v-212h162.294c-38.405 109.714-96.599 193.652-162.294 212zM751.258 478c-2.176 75.044-12.114 146.448-28.534 210h-180.726v-210h209.26zM482.010 418.002h-209.26c2.176-75.049 12.118-146.447 28.538-210.002h180.722v210.002zM768.020 748.011h155.5c-62.1 84.946-149.524 156.71-251.372 190.514 39.142-46.208 71.88-115.694 95.872-190.514zM256 147.999h-155.5c62.098-84.946 149.52-156.708 251.368-190.515-39.142 46.208-71.88 115.697-95.868 190.515zM256 748.011c23.986 74.82 56.726 144.306 95.866 190.514-101.846-33.804-189.268-105.568-251.366-190.514h155.5zM768.015 147.999c-23.987-74.819-56.724-144.307-95.867-190.515 101.847 33.807 189.271 105.569 251.372 190.515h-155.505zM541.998 418.002v-210.002h180.726c16.42 63.555 26.363 134.953 28.534 210.002h-209.26zM784.748 688c15.314-64.13 24.504-134.89 26.47-210h212.772c-4.424 75.52-28.37 146.77-62.244 210h-176.998zM541.998 147.999v-211.999c65.695 18.35 123.889 102.287 162.294 211.999h-162.294zM1023.99 418.002h-212.772c-1.966-75.11-11.151-145.874-26.47-210.002h176.998c33.874 63.232 57.82 134.482 62.244 210.002z" />
<glyph unicode="&#xe90b;" glyph-name="kyber-network" horiz-adv-x="725" d="M308.667 447.838l385.814-218.863c3.102-1.843 6.643-2.837 10.261-2.88s7.181 0.87 10.321 2.645c3.145 1.775 5.751 4.343 7.561 7.45 1.809 3.102 2.748 6.626 2.722 10.21v403.18c0.047 3.589-0.883 7.124-2.688 10.234-1.809 3.111-4.425 5.684-7.582 7.45-3.153 1.765-6.729 2.659-10.355 2.586-3.622-0.073-7.159-1.108-10.24-2.999l-385.814-219.013zM686.276 763.759l-263.743 192.115c-2.741 2.075-5.957 3.449-9.362 4s-6.895 0.262-10.161-0.841c-3.265-1.103-6.206-2.987-8.561-5.484s-4.053-5.531-4.942-8.832l-96.3-427.942 390.755 213.972c2.974 1.515 5.5 3.763 7.339 6.528 1.843 2.765 2.931 5.953 3.162 9.256 0.235 3.303-0.397 6.61-1.83 9.601s-3.622 5.565-6.357 7.474zM422.225-60.019l264.051 192.111c2.735 1.937 4.924 4.527 6.366 7.535 1.438 3.004 2.082 6.323 1.865 9.643-0.218 3.324-1.284 6.532-3.102 9.331-1.818 2.795-4.326 5.090-7.287 6.66l-390.909 213.969 96.3-427.942c0.799-3.324 2.419-6.4 4.716-8.951s5.196-4.497 8.44-5.666c3.244-1.165 6.729-1.515 10.144-1.020 3.415 0.499 6.65 1.826 9.418 3.87zM208.349 455.637l100.312 464.772c0.766 3.85 0.355 7.839-1.182 11.456s-4.128 6.698-7.443 8.848c-3.315 2.15-7.202 3.272-11.164 3.221s-7.819-1.271-11.077-3.505l-256.953-195.171c-6.507-4.943-11.772-11.309-15.386-18.599s-5.478-15.309-5.448-23.43v-495.188c-0.151-8.252 1.656-16.422 5.275-23.855s8.948-13.918 15.559-18.94l255.718-194.406c3.258-2.236 7.115-3.456 11.077-3.507 3.962-0.047 7.849 1.075 11.164 3.221 3.315 2.15 5.906 5.235 7.442 8.849 1.536 3.618 1.948 7.607 1.182 11.456l-99.078 464.777z" />
<glyph unicode="&#xe90c;" glyph-name="mobile" horiz-adv-x="805" d="M609.031 935.621h-413.499c-134.583 0-183.345-48.762-183.345-185.783v-603.673c0-137.022 48.762-185.783 183.345-185.783h413.012c135.073 0 183.834 48.761 183.834 185.783v603.673c0 137.021-48.761 185.783-183.347 185.783zM402.282 92.039c-46.811 0-85.333 38.521-85.333 85.332s38.522 85.336 85.333 85.336c46.811 0 85.336-38.524 85.336-85.336s-38.524-85.332-85.336-85.332zM499.807 728.383h-195.048c-19.993 0-36.571 16.579-36.571 36.571s16.579 36.571 36.571 36.571h195.048c19.994 0 36.571-16.579 36.571-36.571s-16.578-36.571-36.571-36.571z" />
<glyph unicode="&#xe90d;" glyph-name="pegasus" d="M658.389 325.683c-5.999-164.179-156.179-292-156.179-292l-118.221 46.861c-55.14 21.999-75.718 57.12-100.619 110.98l-0.122 0.239 188.981-54.4-115.46 55.281c-83.059 39.759-117.741 94.24-153.52 179.1l268.94-104-252.399 152.459c-57.341 34.641-74.301 73.361-102.501 134.121l322.32-137.481-157.999 103.021c-170.421 107.14-185.721 169.619-243.861 295l362-227.721c102.999-64.759 263.1-139.859 258.639-261.459zM986.229 527.004c0-13.741-35.019-41.7-40.7-41.239-7.401 0.619-92.54 55.699-123.859 71.36-30.001 14.978-118.78-2.541-128.38 85.619-22.001-56 21.54-180.42 55.68-240.361 70.839-124.339-51.42-293.18-203.601-372 21.218 21.457 40.813 44.461 58.62 68.821 22.692 30.746 41.815 63.972 57.001 99.040 18.001 42.4 28 84.879 29.459 126.259 0.981 30.974-6.47 61.632-21.559 88.7-12.979 24-31.479 46.801-56.559 69.86-43.68 40.179-100 73.82-149.841 103.479l-2.319 1.38c-11.661 22.001-17.261 42.519-9.621 59.52 53.421 118.82 201.86 187.040 332.361 173.72 42.4 50.96 83.78 44.16 83.78 44.16l-23.799-50.66c0 0 40 22.38 46.219 14.58l-32.96-61.4 27.84-37.059c0 0 102.24-191.14 102.24-203.78zM838.63 726.844c0 3.746-1.111 7.407-3.191 10.522-2.082 3.115-5.041 5.542-8.501 6.976s-7.268 1.809-10.942 1.077c-3.676-0.73-7.051-2.534-9.698-5.182-2.65-2.65-4.452-6.025-5.184-9.698-0.73-3.674-0.356-7.482 1.077-10.944 1.434-3.46 3.861-6.419 6.976-8.499 3.115-2.082 6.778-3.191 10.524-3.191 2.49-0.004 4.956 0.484 7.258 1.438 2.302 0.951 4.393 2.347 6.155 4.109 1.76 1.762 3.157 3.853 4.109 6.155 0.951 2.3 1.44 4.768 1.438 7.258l-0.019-0.019z" />
<glyph unicode="&#xe90e;" glyph-name="place" horiz-adv-x="1117" d="M1095.997 946.179c-19.056 15.986-48.984 18.273-79.933 5.982h-0.047c-32.549-12.919-921.28-390.039-957.46-405.446-6.58-2.262-64.051-23.476-58.131-70.727 5.285-42.608 51.474-60.248 57.115-62.287l225.943-76.535c14.99-49.361 70.25-231.489 82.471-270.397 7.622-24.255 20.046-56.125 41.82-62.687 19.106-7.289 38.11-0.628 50.407 8.923l138.139 126.753 222.995-172.046 5.311-3.142c15.141-6.633 29.649-9.951 43.497-9.951 10.696 0 20.959 1.987 30.767 5.958 33.41 13.573 46.774 45.065 48.17 48.635l166.568 856.512c10.166 45.745-3.961 69.020-17.631 80.456zM482.751 306.553l-76.221-201.076-76.221 251.345 584.36 427.289-431.919-477.558z" />
<glyph unicode="&#xe90f;" glyph-name="reddit" horiz-adv-x="1365" d="M1176.115 848.086c-118.147 95.072-305.044 111.188-313.042 111.768-12.407 1.043-24.235-5.913-29.332-17.391-0.466-0.696-4.523-10.087-9.045-24.696 78.143-13.217 174.143-39.768 260.983-93.681 13.915-8.58 18.204-26.899 9.626-40.812-5.683-9.159-15.303-14.145-25.276-14.145-5.33 0-10.78 1.508-15.65 4.522-149.333 92.637-335.77 97.275-371.712 97.275s-222.493-4.638-371.71-97.275c-13.913-8.696-32.232-4.406-40.812 9.507-8.695 14.029-4.405 32.232 9.507 40.928 86.841 53.797 182.841 80.463 260.986 93.565-4.522 14.725-8.58 24-8.928 24.812-5.217 11.478-16.928 18.667-29.45 17.391-8-0.58-194.898-16.696-314.667-113.044-62.492-57.855-187.594-395.942-187.594-688.233 0-5.217 1.391-10.2 3.942-14.723 86.261-151.654 321.739-191.306 375.42-193.047 0.232 0 0.58 0 0.927 0 9.507 0 18.435 4.523 24 12.174l54.261 74.667c-146.435 37.797-221.217 102.030-225.507 105.859-12.29 10.78-13.45 29.565-2.551 41.853 10.783 12.288 29.565 13.449 41.855 2.668 1.739-1.627 139.478-118.494 410.319-118.494 271.303 0 409.042 117.333 410.436 118.494 12.288 10.667 30.953 9.62 41.853-2.782 10.78-12.294 9.626-30.959-2.668-41.739-4.289-3.829-79.070-68.062-225.508-105.859l54.261-74.667c5.569-7.652 14.495-12.174 24.001-12.174 0.347 0 0.694 0 0.927 0 53.68 1.741 289.161 41.392 375.421 193.047 2.549 4.523 3.942 9.506 3.942 14.723 0 292.291-125.099 630.378-189.218 689.508zM489.739 277.305c-57.392 0-103.884 53.1-103.884 118.723s46.492 118.725 103.884 118.725c57.391 0 103.885-53.102 103.885-118.725s-46.494-118.723-103.885-118.723zM875.594 277.305c-57.39 0-103.885 53.1-103.885 118.723s46.495 118.725 103.885 118.725c57.39 0 103.885-53.102 103.885-118.725s-46.495-118.723-103.885-118.723z" />
<glyph unicode="&#xe910;" glyph-name="startup" d="M716.317 935.621h-408.627c-177.493 0-283.306-105.813-283.306-283.307v-408.138c0-177.982 105.813-283.794 283.306-283.794h408.137c177.496 0 283.308 105.812 283.308 283.308v408.624c0.486 177.493-105.326 283.307-282.818 283.307zM298.914 148.114c0-19.99-16.579-36.571-36.571-36.571s-36.571 16.581-36.571 36.571v100.937c0 19.994 16.579 36.571 36.571 36.571s36.571-16.578 36.571-36.571v-100.937zM548.575 148.114c0-19.99-16.581-36.571-36.571-36.571-19.994 0-36.571 16.581-36.571 36.571v202.364c0 19.99 16.578 36.571 36.571 36.571 19.99 0 36.571-16.581 36.571-36.571v-202.364zM798.234 148.114c0-19.99-16.578-36.571-36.571-36.571-19.99 0-36.571 16.581-36.571 36.571v303.301c0 19.99 16.581 36.571 36.571 36.571 19.994 0 36.571-16.581 36.571-36.571v-303.301zM798.234 605.503c0-19.994-16.578-36.572-36.571-36.572-19.99 0-36.571 16.578-36.571 36.572v47.299c-124.343-127.756-279.892-217.967-453.972-261.363-2.925-0.976-5.851-0.976-8.777-0.976-16.579 0-31.208 11.216-35.596 27.794-4.876 19.504 6.827 39.497 26.819 44.372 164.326 40.96 310.612 127.269 426.668 249.175h-60.954c-19.994 0-36.571 16.579-36.571 36.571s16.578 36.571 36.571 36.571h142.874c1.949 0 3.412-0.975 5.361-0.975 2.439-0.488 4.879-0.488 7.314-1.463 2.439-0.975 4.389-2.438 6.828-3.901 1.463-0.975 2.926-1.463 4.389-2.438 0.49-0.487 0.486-0.975 0.976-0.975 1.949-1.951 3.412-3.901 4.875-5.851s2.926-3.414 3.412-5.364c0.976-1.95 0.976-3.901 1.463-6.339 0.49-2.438 1.463-4.876 1.463-7.802 0-0.487 0.49-0.975 0.49-1.463v-142.872h-0.49z" />
<glyph unicode="&#xe911;" glyph-name="tiktok" d="M902.097 960h-780.192c-67.218 0-121.905-54.686-121.905-121.905v-780.192c0-67.217 54.686-121.903 121.905-121.903h780.192c67.217 0 121.903 54.686 121.903 121.903v780.192c0 67.218-54.686 121.905-121.903 121.905zM804.719 513.267c-5.534-0.512-11.145-0.853-16.823-0.853-63.953 0-120.149 32.89-152.845 82.603 0-130.415 0-278.797 0-281.285 0-114.807-93.086-207.893-207.898-207.893-114.809 0-207.895 93.086-207.895 207.893 0 114.812 93.086 207.898 207.895 207.898 4.339 0 8.585-0.388 12.851-0.657v-102.451c-4.267 0.512-8.461 1.293-12.851 1.293-58.61 0-106.105-47.492-106.105-106.103s47.494-106.108 106.105-106.108c58.611 0 110.374 46.178 110.374 104.789 0 2.317 1.024 477.721 1.024 477.721h97.911c9.216-87.552 79.898-156.648 168.256-162.987v-113.86z" />
<glyph unicode="&#xe912;" glyph-name="twitter" d="M838.148 696.297c36.57 22.877 63.932 58.899 76.979 101.341-34.364-21.336-71.957-36.365-111.164-44.438-54.353 60.167-140.476 74.81-210.236 35.744-69.764-39.065-105.899-122.166-88.213-202.868-140.757 7.395-271.896 76.97-360.785 191.413-46.389-83.729-22.683-190.764 54.175-244.604-27.793 0.937-54.969 8.811-79.263 22.968 0-0.768 0-1.537 0-2.305 0.016-87.218 58.759-162.346 140.454-179.63-25.779-7.339-52.82-8.422-79.059-3.162 22.976-74.586 88.669-125.683 163.544-127.211-62.014-50.931-138.599-78.549-217.433-78.417-13.973-0.021-27.936 0.819-41.814 2.522 80.054-53.833 173.228-82.406 268.385-82.304 132.387-0.951 259.615 53.662 353.225 151.625 93.611 97.967 145.792 231.104 144.87 369.638 0 7.94-0.175 15.837-0.529 23.692 34.287 25.929 63.876 58.049 87.381 94.853-31.94-14.816-65.822-24.542-100.518-28.857z" />
<glyph unicode="&#xe913;" glyph-name="users" horiz-adv-x="1408" d="M448.966 595.828c0-79.24-64.428-143.612-143.668-143.612s-143.36 64.4-143.36 143.612c0 79.24 64.12 143.64 143.36 143.64s143.668-64.4 143.668-143.64zM704 495.594c119.846 0 216.998 97.155 216.998 217s-97.152 217-216.998 217c-119.846 0-217-97.154-217-217s97.154-217 217-217zM1102.733 739.469c79.245 0 143.642-64.4 143.642-143.64s-64.397-143.612-143.642-143.612c-79.238 0-143.36 64.4-143.36 143.612 0 79.24 64.122 143.64 143.36 143.64zM1403.987 253.702v-94.669c0-11.757-7.283-22.4-18.202-26.266-59.334-21.587-120.678-36.115-183.398-43.731v133.248c0.307 65.242-24.026 127.934-67.763 176.43 25.76 4.144 50.4 13.412 72.55 27.16 86.771-20.692 196.25-68.32 196.813-172.173zM1146.394 222.285v-132.691c0-23.546-14.835-44.826-36.928-52.64-262.054-94.080-548.829-94.080-810.881 0-22.12 7.814-36.96 29.094-36.96 52.64v132.691c0.28 157.053 166.6 228.733 297.36 259.309 88.759-56 201.597-55.72 290.359 0 130.707-31.080 296.467-101.892 297.050-259.309zM273.36 398.715c-43.68-48.44-67.76-111.188-67.76-176.43v-133.28c-62.44 7.59-124.040 22.093-183.12 43.712-11.2 3.917-18.48 14.56-18.48 26.317v94.669c0.28 103.853 110.32 151.48 196.84 172.173 22.12-13.692 46.76-22.932 72.52-27.16z" />
<glyph unicode="&#xe914;" glyph-name="vuesax" horiz-adv-x="878" d="M757.756 829.804l-268.189 100.449c-27.794 10.24-73.143 10.24-100.937 0l-268.19-100.449c-51.688-19.505-93.623-79.97-93.623-135.070v-394.972c0-39.497 25.844-91.674 57.539-115.079l268.19-200.411c47.3-35.595 124.831-35.595 172.129 0l268.189 200.411c31.696 23.896 57.541 75.582 57.541 115.079v394.972c0.486 55.101-41.45 115.566-92.65 135.070zM475.425 405.573v-128.241c0-19.994-16.578-36.571-36.571-36.571-19.99 0-36.571 16.578-36.571 36.571v128.241c-49.248 15.605-85.332 61.44-85.332 115.566 0 67.291 54.612 121.906 121.903 121.906s121.907-54.615 121.907-121.906c0-54.612-36.085-99.961-85.336-115.566z" />
<glyph unicode="&#xe915;" glyph-name="wide" horiz-adv-x="1053" d="M526.629 960l8.906-236.771c5.448-144.857 123.405-261.028 270.416-266.322l247.306-8.907-247.306-8.907c-147.010-5.294-264.969-121.465-270.416-266.322l-8.906-236.771-8.906 236.771c-5.448 144.857-123.407 261.028-270.416 266.322l-247.306 8.907 247.306 8.907c147.010 5.294 264.969 121.465 270.416 266.322l8.906 236.771z" />
<glyph unicode="&#xe916;" glyph-name="youtobe" horiz-adv-x="1365" d="M1327.223 786.173c-12.624 69.506-72.761 120.124-142.546 135.926-104.437 22.099-297.717 37.901-506.834 37.901-208.996 0-405.37-15.802-509.929-37.901-69.664-15.802-129.925-63.21-142.547-135.926-12.745-79.012-25.366-189.629-25.366-331.852s12.621-252.838 28.46-331.851c12.745-69.507 72.882-120.127 142.547-135.925 110.87-22.101 300.933-37.905 510.050-37.905s399.184 15.804 510.054 37.905c69.66 15.798 129.798 63.209 142.546 135.925 12.618 79.013 28.456 192.836 31.676 331.851-6.434 142.222-22.272 252.84-38.11 331.852zM506.834 233.085v442.47l386.435-221.235-386.435-221.236z" />
<glyph unicode="&#xe917;" glyph-name="chase" horiz-adv-x="1103" d="M705.776 957.305l-171.999-32.739-4.901-5.7c-16.325-18.965-40.592-32.068-66.853-33.819-26.262-1.749-54.973 6.951-83.291 35.054l-13.196 13.050-14.931-11.031-133.916-99.884-2.022-6.923c-27.029-92.19-104.905-281.224-212.591-439.042v-73.917c127.793 168.58 218.252 383.35 251.676 493.773l108.536 80.838c32.573-26.455 68.947-37.218 102.623-34.973 35.72 2.384 67.832 18.729 91.154 42.909l122.163 23.291 30.429-80.335 11.54-2.377c58.352-12.208 133.307-40.472 192.622-95.916 17.762-191.2 66.794-329.578 186.055-448.339v63.027c-91.408 105.035-129.046 225.079-144.087 397.789l-0.646 7.932-5.77 5.626c-64.25 62.884-143.575 94.287-207.624 109.253l-34.972 92.453zM568.324 795.407c-88.060 0-167.769-14.839-223.486-37.574-27.859-11.368-49.569-24.812-63.319-38.077-9.12-8.799-14.59-16.977-17.233-24.806-0.096-0.286-0.201-0.583-0.289-0.866-29.46-87.564-68.676-175.147-113.367-262.715 56.076 53.984 102.507 115.159 130.962 179.568l-31.514-137.019-106.949-292.356 6.778-9.301 60.29-83.222-58.268-133.415h47.091l55.601 127.5 4.976 11.327-68.076 93.893 17.74 48.392 163.2 362.088c50.861-16.303 115.836-26.719 186.703-27.55l20.838-264.806 65.918-290.696-11.829 303.894 33.969 170.482 61.149-87.259-2.377 185.624c23.993 5.65 45.871 12.501 64.902 20.267 11.833 4.829 22.528 10.043 32.018 15.433 17.115-86.016 67.444-167.879 138.61-249.807-41.324 98.43-84.663 203.238-89.206 300.144 0.738 2.96 1.079 5.853 1.079 8.724 0 11.317-5.36 23.227-19.107 36.492-13.753 13.265-35.533 26.709-63.392 38.077-55.715 22.737-135.351 37.569-223.413 37.569v-0.005zM705.776 957.305l-171.999-32.739-4.901-5.7c-16.325-18.965-40.592-32.068-66.853-33.819-26.262-1.749-54.973 6.951-83.291 35.054l-13.196 13.050-14.931-11.031-133.916-99.884-2.022-6.923c-27.029-92.19-104.905-281.224-212.591-439.042v-73.917c127.793 168.58 218.252 383.35 251.676 493.773l108.536 80.838c32.573-26.455 68.947-37.218 102.623-34.973 35.72 2.384 67.832 18.729 91.154 42.909l122.163 23.291 30.429-80.335 11.54-2.377c58.352-12.208 133.307-40.472 192.622-95.916 17.762-191.2 66.794-329.578 186.055-448.339v63.027c-91.408 105.035-129.046 225.079-144.087 397.789l-0.646 7.932-5.77 5.626c-64.25 62.884-143.575 94.287-207.624 109.253l-34.972 92.453zM568.324 795.407c-88.060 0-167.769-14.839-223.486-37.574-27.859-11.368-49.569-24.812-63.319-38.077-9.12-8.799-14.59-16.977-17.233-24.806-0.096-0.286-0.201-0.583-0.289-0.866-29.46-87.564-68.676-175.147-113.367-262.715 56.076 53.984 102.507 115.159 130.962 179.568l-31.514-137.019-106.949-292.356 6.778-9.301 60.29-83.222-58.268-133.415h47.091l55.601 127.5 4.976 11.327-68.076 93.893 17.74 48.392 163.2 362.088c50.861-16.303 115.836-26.719 186.703-27.55l20.838-264.806 65.918-290.696-11.829 303.894 33.969 170.482 61.149-87.259-2.377 185.624c23.993 5.65 45.871 12.501 64.902 20.267 11.833 4.829 22.528 10.043 32.018 15.433 17.115-86.016 67.444-167.879 138.61-249.807-41.324 98.43-84.663 203.238-89.206 300.144 0.738 2.96 1.079 5.853 1.079 8.724 0 11.317-5.36 23.227-19.107 36.492-13.753 13.265-35.533 26.709-63.392 38.077-55.715 22.737-135.351 37.569-223.413 37.569v-0.005z" />
<glyph unicode="&#xe918;" glyph-name="create" horiz-adv-x="721" d="M658.781 203.076c-12.354-148.996-141.304-266.187-298.581-266.187s-286.228 117.191-298.584 266.187c6.311-11.497 12.917-22.661 19.818-33.49 74.235-116.165 173.247-180.141 278.745-180.141 105.495 0 204.529 63.975 278.765 180.209 6.916 10.769 13.528 21.91 19.839 33.422h-0.002zM711.291 565.976c0-137.051-37.541-274.4-102.995-376.8-67.319-105.341-155.434-163.332-247.984-163.332s-180.756 58.015-247.985 163.328c-65.456 102.379-102.993 239.749-102.993 376.802 0 104.655 29.029 200.346 81.72 269.372 61.564 80.947 154.707 123.765 269.146 123.765s207.646-42.771 269.394-123.72c52.668-69.049 81.675-164.715 81.675-269.394l0.023-0.021zM320.52 563.701c2.867 17.381-126.656 60.152-163.806 66.274-37.153 6.119-62.155 9.098-68.253-27.986-1.458-8.822-1.163-17.844 0.866-26.55 2.030-8.708 5.755-16.93 10.963-24.199 5.208-7.267 11.796-13.437 19.39-18.159 7.593-4.72 16.042-7.9 24.864-9.354 37.107-6.19 173.019 22.044 175.956 39.904l0.021 0.070zM484.805 262.339c0 25.027-42.181 45.117-124.608 45.117s-124.606-20.203-124.606-45.117c0-24.91 42.177-45.113 124.606-45.113 82.426 0 124.608 20.133 124.608 45.045v0.068zM631.935 601.922c-6.119 37.107-31.192 34.126-68.253 27.982-37.061-6.142-166.628-48.89-163.806-66.274 2.934-17.859 138.78-46.071 175.955-39.951 8.822 1.453 17.271 4.629 24.864 9.349 7.595 4.718 14.184 10.887 19.395 18.151 5.209 7.267 8.937 15.487 10.97 24.193 2.033 8.708 2.329 17.728 0.874 26.55zM658.781 203.076c-12.354-148.996-141.304-266.187-298.581-266.187s-286.228 117.191-298.584 266.187c6.311-11.497 12.917-22.661 19.818-33.49 74.235-116.165 173.247-180.141 278.745-180.141 105.495 0 204.529 63.975 278.765 180.209 6.916 10.769 13.528 21.91 19.839 33.422h-0.002zM711.291 565.976c0-137.051-37.541-274.4-102.995-376.8-67.319-105.341-155.434-163.332-247.984-163.332s-180.756 58.015-247.985 163.328c-65.456 102.379-102.993 239.749-102.993 376.802 0 104.655 29.029 200.346 81.72 269.372 61.564 80.947 154.707 123.765 269.146 123.765s207.646-42.771 269.394-123.72c52.668-69.049 81.675-164.715 81.675-269.394l0.023-0.021zM320.52 563.701c2.867 17.381-126.656 60.152-163.806 66.274-37.153 6.119-62.155 9.098-68.253-27.986-1.458-8.822-1.163-17.844 0.866-26.55 2.030-8.708 5.755-16.93 10.963-24.199 5.208-7.267 11.796-13.437 19.39-18.159 7.593-4.72 16.042-7.9 24.864-9.354 37.107-6.19 173.019 22.044 175.956 39.904l0.021 0.070zM484.805 262.339c0 25.027-42.181 45.117-124.608 45.117s-124.606-20.203-124.606-45.117c0-24.91 42.177-45.113 124.606-45.113 82.426 0 124.608 20.133 124.608 45.045v0.068zM631.935 601.922c-6.119 37.107-31.192 34.126-68.253 27.982-37.061-6.142-166.628-48.89-163.806-66.274 2.934-17.859 138.78-46.071 175.955-39.951 8.822 1.453 17.271 4.629 24.864 9.349 7.595 4.718 14.184 10.887 19.395 18.151 5.209 7.267 8.937 15.487 10.97 24.193 2.033 8.708 2.329 17.728 0.874 26.55z" />
<glyph unicode="&#xe919;" glyph-name="buy" horiz-adv-x="948" d="M406.949 945.074c-8.787 0.031-17.603 0.022-26.444-0.016-42.549-0.198-85.777-1.316-129.375-2.933l12.612-55.318c45.403 5.133 95.179 8.955 144.949 10.867 26.965 1.036 53.764 1.582 79.76 1.445 77.989-0.407 148.749-6.956 195.045-24.893l19.795-7.675-8.839-19.3c-64.58-141.078-79.515-277.183-69.395-410.724 4.995 158.483 70.872 299.444 157.355 480.15-117.68 19.556-243.63 27.96-375.465 28.4v-0.002zM469.248 858.874c-19.422-0.016-39.223-0.409-59.020-1.169-92.604-3.556-184.887-14.422-245.031-26.88 67.185-124.619 121.533-249.527 156.63-371.293 4.365 0.146 8.734 0.112 13.098-0.101 8.928-0.436 17.759-1.648 26.389-3.533-35.722 114.216-76.411 219.555-126.991 324.736l-11.429 23.765 25.968 4.595c65.236 11.551 132.57 16.022 196.654 16.042 4.27 0 8.533-0.016 12.773-0.053 40.719-0.356 79.965-2.462 116.325-5.633l24.565-2.144-7.164-23.593c-41.555-136.807-49.696-283.73-26.201-423.515 0.393-0.362 0.787-0.722 1.17-1.088 8.473 2.968 16.399 5.994 23.789 9.231-18.343 149.764-10.215 304.272 58.286 464.89-38.227 9.74-96.501 14.831-160.531 15.631-6.427 0.080-12.851 0.117-19.278 0.111v0.002zM791.347 842.463c-68.79-145.68-117.65-262.422-125.66-388.451 44.529 148.45 130.598 281.522 228.676 367.018-34.044 8.492-68.409 15.642-103.016 21.433zM135.879 801.287c-41.689-8.596-82.413-19.507-121.804-34.582 19.169-16.623 53.822-47.544 95.867-88.642 19.351 19.919 39.087 39.597 59.671 57.49-10.903 22.084-22.148 43.999-33.733 65.735zM451.485 784.66c-30.267 0.147-61.248-0.72-92.342-2.873-3.262-30.404-21.244-58.849-42.722-86.823 34.291-81.042 63.905-163.739 90.567-251.542 40.835-12.043 81.232-26.283 113.956-43.342-12.155 94.35-10.492 191.029 5.289 285.573-28.632 29.578-43.548 62.422-44.743 98.534-10.001 0.266-20.002 0.424-30.005 0.473zM855.969 724.694c-54.955-65.111-103.378-146.66-136.378-235.361 60.587 86.183 135.090 153.405 214.393 200.89-25.835 11.867-51.845 23.359-78.016 34.471zM187.659 698.118c-32.431-29.305-64.476-64.482-97.847-97.993 71.753-42.646 132.868-93.152 182.724-150.355 3.097 1.168 6.224 2.221 9.368 3.178-23.33 80.213-55.3 162.295-94.245 245.17zM706.296 420.892c-36.437-43.973-70.741-67.19-117.978-85.713 5.313-20.488-2.577-44.011-20.742-62.001-10.684-10.579-24.111-22.64-43.742-30.477 2.831-1.678 5.723-3.254 8.666-4.727 27.475-13.71 76.015-9.288 121.111 11.22 44.955 20.444 85.115 55.761 100.001 91.536 7.46 20.11 2.133 30.599-10.926 45.981-9.299 10.944-22.879 21.978-36.39 34.177v0.004zM328.344 419.59c-23.812 0.218-47.993-6.654-67.978-21.69-28.422-21.385-50.333-59.519-50.529-124.297v-0.446l-0.023-0.444c-6.489-136.402 3.556-199.333 23.455-233.478 17.565-30.138 46.778-44.565 89.511-71.098 2.037 5.346 4.157 11.922 6.146 20.218 5.059 21.108 9.246 50.1 11.899 82.167 5.31 64.129 4.534 141.134-4.344 196.544l-4.691 29.311 28.924-6.654c70.256-16.164 110.446-18.072 133.778-13.957 23.338 4.121 31.247 12.273 44.937 25.831 12.866 12.737 12.626 17.323 9.902 24.491-2.727 7.172-13.665 18.99-32.224 30.295-37.116 22.613-100.189 43.581-159.141 59.216-9.669 2.56-19.621 3.901-29.622 3.99zM748.565 265.332c-22.251-21.675-49.634-39.47-78.393-52.548-46.628-21.204-97.917-30.906-140.468-16.786-15.022-5.59-23.749-12.015-28.152-17.332-6.040-7.299-6.417-12.667-4.371-20.355 2.044-7.689 8.145-16.818 15.686-23.387s16.503-9.982 19.909-10.143c103.987-4.938 148.992 24.904 205.060 59.519 16.352 10.092 22.61 30.54 21.043 50.957-0.785 10.208-3.757 19.801-7.185 25.845-0.851 1.542-1.904 2.964-3.129 4.231zM379.261 245.119c6.061-55.707 6.159-120.699 1.426-177.895-2.77-33.494-7.056-63.954-12.864-88.189-2.526-10.547-5.306-19.898-8.666-28.132l325.992 14.366c-3.679 13.665-7.43 27.386-11.179 41.115-12.525-4.168-25.327-7.454-38.311-9.83l0.097-1.623-18.479-1.151c-11.38-1.363-23.228-2.118-35.518-2.203l-186.357-11.579 5.541 25.793c17.66 82.237 19.289 154.643 8.395 233.853-10.062 1.629-20.089 3.455-30.079 5.475h0.002zM450.31 234.71c8.774-70.963 7.718-138.689-5.348-211.557l42.809 2.659c-6.713 9.906-11.325 21.081-13.555 32.84-2.88 15.288-1.278 32.305 8.725 46.378 0.442 0.624 0.92 1.221 1.394 1.824-11.658 10.765-21.396 24.582-25.81 41.165-4.697 17.653-1.764 39.267 12.216 56.155 4.621 5.577 10.204 10.614 16.763 15.146-5.801 4.623-10.885 9.523-15.277 14.628-6.808-0.047-14.099 0.207-21.917 0.762zM745.123 141.854c-52.123-31.674-110.689-61.946-214.244-57.031-3.381 0.165-6.739 0.622-10.041 1.367-2.74-1.231-4.202-2.791-5.293-4.327-2.141-3.011-3.406-8.444-2.021-15.808 2.774-14.727 16.723-30.864 29.711-32.375 91.967-10.695 155.51 19.392 194.092 54.393 17.778 16.13 17.929 26.446 15.311 37.67-1.31 5.605-4.2 11.042-7.515 16.111zM730.271 32.827c-6.172-3.87-12.51-7.473-18.993-10.799 3.667-13.447 7.342-26.893 10.972-40.342l44.267 7.938c-11.423 9.749-20.361 19.898-27.534 29.99-3.205 4.509-6.028 8.892-8.712 13.213zM406.949 945.074c-8.787 0.031-17.603 0.022-26.444-0.016-42.549-0.198-85.777-1.316-129.375-2.933l12.612-55.318c45.403 5.133 95.179 8.955 144.949 10.867 26.965 1.036 53.764 1.582 79.76 1.445 77.989-0.407 148.749-6.956 195.045-24.893l19.795-7.675-8.839-19.3c-64.58-141.078-79.515-277.183-69.395-410.724 4.995 158.483 70.872 299.444 157.355 480.15-117.68 19.556-243.63 27.96-375.465 28.4v-0.002zM469.248 858.874c-19.422-0.016-39.223-0.409-59.020-1.169-92.604-3.556-184.887-14.422-245.031-26.88 67.185-124.619 121.533-249.527 156.63-371.293 4.365 0.146 8.734 0.112 13.098-0.101 8.928-0.436 17.759-1.648 26.389-3.533-35.722 114.216-76.411 219.555-126.991 324.736l-11.429 23.765 25.968 4.595c65.236 11.551 132.57 16.022 196.654 16.042 4.27 0 8.533-0.016 12.773-0.053 40.719-0.356 79.965-2.462 116.325-5.633l24.565-2.144-7.164-23.593c-41.555-136.807-49.696-283.73-26.201-423.515 0.393-0.362 0.787-0.722 1.17-1.088 8.473 2.968 16.399 5.994 23.789 9.231-18.343 149.764-10.215 304.272 58.286 464.89-38.227 9.74-96.501 14.831-160.531 15.631-6.427 0.080-12.851 0.117-19.278 0.111v0.002zM791.347 842.463c-68.79-145.68-117.65-262.422-125.66-388.451 44.529 148.45 130.598 281.522 228.676 367.018-34.044 8.492-68.409 15.642-103.016 21.433zM135.879 801.287c-41.689-8.596-82.413-19.507-121.804-34.582 19.169-16.623 53.822-47.544 95.867-88.642 19.351 19.919 39.087 39.597 59.671 57.49-10.903 22.084-22.148 43.999-33.733 65.735zM451.485 784.66c-30.267 0.147-61.248-0.72-92.342-2.873-3.262-30.404-21.244-58.849-42.722-86.823 34.291-81.042 63.905-163.739 90.567-251.542 40.835-12.043 81.232-26.283 113.956-43.342-12.155 94.35-10.492 191.029 5.289 285.573-28.632 29.578-43.548 62.422-44.743 98.534-10.001 0.266-20.002 0.424-30.005 0.473zM855.969 724.694c-54.955-65.111-103.378-146.66-136.378-235.361 60.587 86.183 135.090 153.405 214.393 200.89-25.835 11.867-51.845 23.359-78.016 34.471zM187.659 698.118c-32.431-29.305-64.476-64.482-97.847-97.993 71.753-42.646 132.868-93.152 182.724-150.355 3.097 1.168 6.224 2.221 9.368 3.178-23.33 80.213-55.3 162.295-94.245 245.17zM706.296 420.892c-36.437-43.973-70.741-67.19-117.978-85.713 5.313-20.488-2.577-44.011-20.742-62.001-10.684-10.579-24.111-22.64-43.742-30.477 2.831-1.678 5.723-3.254 8.666-4.727 27.475-13.71 76.015-9.288 121.111 11.22 44.955 20.444 85.115 55.761 100.001 91.536 7.46 20.11 2.133 30.599-10.926 45.981-9.299 10.944-22.879 21.978-36.39 34.177v0.004zM328.344 419.59c-23.812 0.218-47.993-6.654-67.978-21.69-28.422-21.385-50.333-59.519-50.529-124.297v-0.446l-0.023-0.444c-6.489-136.402 3.556-199.333 23.455-233.478 17.565-30.138 46.778-44.565 89.511-71.098 2.037 5.346 4.157 11.922 6.146 20.218 5.059 21.108 9.246 50.1 11.899 82.167 5.31 64.129 4.534 141.134-4.344 196.544l-4.691 29.311 28.924-6.654c70.256-16.164 110.446-18.072 133.778-13.957 23.338 4.121 31.247 12.273 44.937 25.831 12.866 12.737 12.626 17.323 9.902 24.491-2.727 7.172-13.665 18.99-32.224 30.295-37.116 22.613-100.189 43.581-159.141 59.216-9.669 2.56-19.621 3.901-29.622 3.99zM748.565 265.332c-22.251-21.675-49.634-39.47-78.393-52.548-46.628-21.204-97.917-30.906-140.468-16.786-15.022-5.59-23.749-12.015-28.152-17.332-6.040-7.299-6.417-12.667-4.371-20.355 2.044-7.689 8.145-16.818 15.686-23.387s16.503-9.982 19.909-10.143c103.987-4.938 148.992 24.904 205.060 59.519 16.352 10.092 22.61 30.54 21.043 50.957-0.785 10.208-3.757 19.801-7.185 25.845-0.851 1.542-1.904 2.964-3.129 4.231zM379.261 245.119c6.061-55.707 6.159-120.699 1.426-177.895-2.77-33.494-7.056-63.954-12.864-88.189-2.526-10.547-5.306-19.898-8.666-28.132l325.992 14.366c-3.679 13.665-7.43 27.386-11.179 41.115-12.525-4.168-25.327-7.454-38.311-9.83l0.097-1.623-18.479-1.151c-11.38-1.363-23.228-2.118-35.518-2.203l-186.357-11.579 5.541 25.793c17.66 82.237 19.289 154.643 8.395 233.853-10.062 1.629-20.089 3.455-30.079 5.475h0.002zM450.31 234.71c8.774-70.963 7.718-138.689-5.348-211.557l42.809 2.659c-6.713 9.906-11.325 21.081-13.555 32.84-2.88 15.288-1.278 32.305 8.725 46.378 0.442 0.624 0.92 1.221 1.394 1.824-11.658 10.765-21.396 24.582-25.81 41.165-4.697 17.653-1.764 39.267 12.216 56.155 4.621 5.577 10.204 10.614 16.763 15.146-5.801 4.623-10.885 9.523-15.277 14.628-6.808-0.047-14.099 0.207-21.917 0.762zM745.123 141.854c-52.123-31.674-110.689-61.946-214.244-57.031-3.381 0.165-6.739 0.622-10.041 1.367-2.74-1.231-4.202-2.791-5.293-4.327-2.141-3.011-3.406-8.444-2.021-15.808 2.774-14.727 16.723-30.864 29.711-32.375 91.967-10.695 155.51 19.392 194.092 54.393 17.778 16.13 17.929 26.446 15.311 37.67-1.31 5.605-4.2 11.042-7.515 16.111zM730.271 32.827c-6.172-3.87-12.51-7.473-18.993-10.799 3.667-13.447 7.342-26.893 10.972-40.342l44.267 7.938c-11.423 9.749-20.361 19.898-27.534 29.99-3.205 4.509-6.028 8.892-8.712 13.213z" />
<glyph unicode="&#xe91a;" glyph-name="union-04" horiz-adv-x="1813" d="M487.832 55.239h1171.186l145.519-116.422h-1456.305l-348.232 348.232v670.46l116.422-145.527v-385.333l371.41-371.41z" />
<glyph unicode="&#xe91b;" glyph-name="union-03" horiz-adv-x="1813" d="M1310.323 55.239h-1156.579l-145.528-116.422h1456.311l348.229 348.232v670.46l-116.418-145.527v-370.731l-386.016-386.012z" />
<glyph unicode="&#xe91c;" glyph-name="union-02" horiz-adv-x="1813" d="M1324.918 843.578h-1171.174l-145.528 116.422h1456.311l348.229-348.232v-670.46l-116.418 145.527v385.326l-371.421 371.417z" />
<glyph unicode="&#xe91d;" glyph-name="union-01" horiz-adv-x="1813" d="M502.434 843.578h1156.584l145.519 116.422h-1456.305l-348.232-348.232v-670.46l116.422 145.527v370.731l386.012 386.012z" />
<glyph unicode="&#xe91e;" glyph-name="boxs" horiz-adv-x="922" d="M460.8 960l460.8-256.057v-511.886l-460.8-256.056-460.8 256.056v511.886l460.8 256.057zM76.919 606.255v-371.216l345.182-191.698v371.215l-345.182 191.698zM844.442 606.255l-345.182-191.929v-371.215l345.182 191.698v371.446zM460.8 874.494l-356.409-197.904 356.409-197.904 356.408 197.904-356.408 197.904z" />
<glyph unicode="&#xe91f;" glyph-name="gene" d="M28.599 373.996l66.823-10.957c10.557-51.164 30.761-99.855 59.533-143.468l-39.572-55.229c-8.211-11.177-8.070-26.429 0.348-37.453 9.978-12.196 20.58-23.869 31.762-34.975 11.281-11.3 22.91-21.714 34.887-31.78 11.031-8.433 26.305-8.576 37.491-0.348l55.194 39.593c43.568-28.79 92.224-49.009 143.365-59.566l10.935-66.877c2.083-13.681 12.998-24.315 26.728-26.035 9.51-1.075 19.092-1.736 28.882-2.222 4.753-0.23 9.396 1.485 12.855 4.756 3.459 3.267 5.436 7.803 5.473 12.564v139.095c-0.050 9.375-7.498 17.039-16.87 17.357-175.396 9.093-312.947 153.958-312.947 329.591 0 175.631 137.551 320.498 312.947 329.59 9.372 0.317 16.82 7.979 16.87 17.357v138.973c-0.024 4.757-1.987 9.299-5.437 12.576s-8.088 5.002-12.84 4.781c-9.755-0.405-19.398-1.089-28.934-2.048-13.733-1.871-24.605-12.546-26.728-26.243l-10.935-66.875c-51.139-10.577-99.793-30.798-143.365-59.585l-55.194 39.607c-11.186 8.229-26.46 8.088-37.491-0.348-12.163-9.991-23.807-20.599-34.887-31.779-11.266-11.022-21.872-22.7-31.762-34.973-8.453-11.038-8.594-26.332-0.348-37.524l39.572-55.229c-28.764-43.595-48.968-92.266-59.532-143.416l-66.823-10.935c-13.683-2.090-24.315-13.011-26.035-26.747-3.417-31.148-3.417-62.575 0-93.725 1.544-13.962 12.178-25.201 26.036-27.505zM486.688 707.813c-137.121-8.686-243.888-122.431-243.888-259.828 0-137.395 106.769-251.141 243.888-259.825 4.363-0.179 8.609 1.434 11.745 4.475 3.136 3.036 4.888 7.229 4.848 11.597v487.509c0.042 4.367-1.71 8.559-4.848 11.597-3.136 3.039-7.383 4.656-11.745 4.475zM624.783 690.977h-86.784v-34.713h86.784c28.718 0.086 51.983 23.347 52.065 52.069v107.332c23.91 8.453 38.252 32.902 33.966 57.896-4.291 24.995-25.958 43.264-51.323 43.264-25.359 0-47.032-18.269-51.318-43.264-4.291-24.995 10.051-49.444 33.961-57.896v-107.332c0-9.586-7.767-17.357-17.352-17.357zM537.999 586.838h173.568c9.585 0 17.357 7.771 17.357 17.357s-7.772 17.357-17.357 17.357h-173.568v-34.714zM537.999 204.989h86.784c9.585 0 17.357-7.772 17.357-17.357v-107.331c-23.91-8.453-38.252-32.901-33.966-57.897 4.291-24.996 25.958-43.264 51.323-43.264 25.359 0 47.032 18.268 51.318 43.264 4.291 24.996-10.051 49.444-33.961 57.897v107.331c-0.087 28.723-23.347 51.983-52.070 52.070h-86.784v-34.714zM798.346 378.552h-260.347v-34.714h260.347c9.585 0 17.357-7.772 17.357-17.357v-89.979c-23.91-8.448-38.252-32.901-33.961-57.897 4.285-24.991 25.958-43.264 51.318-43.264s47.032 18.273 51.323 43.264c4.285 24.996-10.056 49.449-33.966 57.897v89.979c-0.087 28.723-23.347 51.983-52.070 52.070zM971.909 500.051c-21.985-0.091-41.544-13.982-48.876-34.713h-385.034v-34.711h385.034c8.873-24.899 35.011-39.178 60.759-33.188 25.743 5.996 42.89 30.351 39.849 56.608-3.041 26.255-25.298 46.051-51.732 46.004zM728.924 291.768c0 9.59-7.772 17.357-17.357 17.357h-173.568v-34.714h173.568c9.585 0 17.357 7.772 17.357 17.357zM850.417 569.477v89.976c23.91 8.453 38.252 32.902 33.966 57.896-4.291 24.995-25.964 43.264-51.323 43.264s-47.032-18.269-51.318-43.264c-4.291-24.995 10.051-49.444 33.961-57.896v-89.976c0-9.587-7.772-17.357-17.357-17.357h-260.347v-34.712h260.347c28.723 0.087 51.983 23.349 52.070 52.069z" />
<glyph unicode="&#xe920;" glyph-name="telegram" horiz-adv-x="1152" d="M79.194 519.177c309.237 144.508 515.443 239.778 618.619 285.808 294.588 131.424 355.802 154.254 395.699 155.008 8.777 0.166 28.395-2.167 41.105-13.228 10.731-9.34 13.683-21.957 15.095-30.812s3.174-29.028 1.775-44.791c-15.966-179.91-85.039-616.505-120.179-818.002-14.869-85.265-44.151-113.852-72.495-116.651-61.602-6.080-108.378 43.665-168.043 85.615-93.363 65.643-146.103 106.505-236.727 170.56-104.734 74.027-36.838 114.714 22.848 181.205 15.62 17.404 287.036 282.197 292.288 306.218 0.657 3.004 1.267 14.202-4.937 20.116s-15.356 3.891-21.961 2.283c-9.365-2.28-158.511-108.016-447.442-317.212-42.335-31.181-80.681-46.37-115.037-45.577-37.875 0.879-110.732 22.972-164.893 41.856-66.431 23.159-119.229 35.405-114.632 74.743 2.395 20.489 28.7 41.442 78.915 62.861z" />
<glyph unicode="&#xe921;" glyph-name="message" horiz-adv-x="1195" d="M878.323 960c76.288 0 149.675-30.151 203.661-84.253 54.046-53.987 84.254-126.805 84.254-203.036v-449.424c0-158.72-129.139-287.287-287.915-287.287h-562.007c-158.777 0-287.858 128.567-287.858 287.287v449.424c0 158.72 128.512 287.289 287.858 287.289h562.007zM968.832 587.947l4.553 4.551c13.594 16.497 13.594 40.391-0.627 56.889-7.906 8.477-18.773 13.653-30.093 14.791-11.947 0.625-23.326-3.413-31.915-11.378l-256.512-204.8c-32.998-27.362-80.273-27.362-113.779 0l-256 204.8c-17.692 13.085-42.155 11.378-56.889-3.982-15.36-15.36-17.067-39.823-4.039-56.889l7.453-7.395 258.843-201.954c31.859-25.033 70.485-38.686 110.933-38.686 40.337 0 79.646 13.653 111.445 38.686l256.627 205.367z" />
<glyph unicode="&#xe922;" glyph-name="Calling" d="M629.943 765.44c-23.212 4.288-44.533-10.526-48.951-33.184s10.441-44.781 33.024-49.216c67.986-13.254 120.481-65.881 133.786-134.099v-0.051c3.789-19.635 21.076-33.913 40.989-33.913 2.67 0 5.339 0.241 8.060 0.731 22.579 4.531 37.442 26.606 33.020 49.313-19.862 101.89-98.289 180.586-199.929 200.419zM626.922 935.229c-10.876 1.559-21.804-1.657-30.497-8.576-8.934-7.017-14.519-17.152-15.733-28.506-2.575-22.951 13.985-43.709 36.908-46.292 158.069-17.639 280.931-140.777 298.704-299.338 2.381-21.248 20.202-37.277 41.472-37.277 1.602 0 3.156 0.095 4.758 0.293 11.121 1.218 21.029 6.722 28.021 15.495 6.945 8.77 10.101 19.686 8.839 30.844-22.144 197.837-175.261 351.38-372.473 373.357zM464.797 400.585c194.516-194.461 238.643 30.508 362.492-93.253 119.398-119.365 188.025-143.283 36.747-294.517-18.951-15.228-139.344-198.44-562.452 224.549-423.16 423.044-240.056 543.562-224.823 562.505 151.645 151.655 175.148 82.63 294.548-36.736 123.849-123.814-101.027-168.086 93.488-362.547z" />
<glyph unicode="&#xe923;" glyph-name="play" horiz-adv-x="623" d="M620.653 449.527l-620.653-510.471v1020.944l620.653-510.473z" />
<glyph unicode="&#xe924;" d="M0 862.476v-97.524h1024v97.524c-0.013 25.861-9.824 50.659-27.28 68.946s-41.126 28.565-65.811 28.578h-837.818c-24.685-0.013-48.356-10.292-65.812-28.578s-27.267-43.084-27.279-68.946zM139.962 813.324c-9.208-0.010-18.212 2.842-25.872 8.194s-13.634 12.964-17.164 21.874c-3.53 8.909-4.459 18.715-2.668 28.177s6.22 18.155 12.728 24.98c6.508 6.824 14.801 11.473 23.831 13.359s18.391 0.923 26.899-2.767c8.508-3.689 15.78-9.939 20.896-17.959s7.848-17.449 7.848-27.096c0-12.932-4.904-25.335-13.633-34.48s-20.568-14.282-32.913-14.282h0.047zM279.459 813.373c-9.206 0-18.205 2.86-25.859 8.218s-13.62 12.974-17.143 21.884c-3.523 8.91-4.445 18.714-2.649 28.173s6.229 18.148 12.739 24.967c6.509 6.82 14.803 11.464 23.832 13.345s18.388 0.916 26.893-2.775c8.505-3.691 15.774-9.94 20.889-17.959s7.843-17.446 7.843-27.091c-0.022-12.924-4.934-25.312-13.659-34.451s-20.548-14.285-32.885-14.311zM0 716.19v-682.667c0-25.866 9.808-50.669 27.266-68.96 17.458-18.288 41.136-28.563 65.825-28.563h837.818c24.688 0 48.368 10.275 65.824 28.563 17.459 18.291 27.267 43.094 27.267 68.96v682.667h-1024zM930.909 33.523h-837.818v585.142h837.818v-585.142z" />
<glyph unicode="&#xe925;" d="M372.368 131.037l65.165 68.269-121.018 126.781 121.018 126.781-65.165 68.266-186.18-195.046 186.18-195.050zM586.48 199.306l65.162-68.269 186.182 195.050-186.182 195.046-65.162-68.266 121.018-126.781-121.018-126.781z" />
<glyph unicode="&#xe926;" d="M372.368 131.037l65.165 68.269-121.018 126.781 121.018 126.781-65.165 68.266-186.18-195.046 186.18-195.050zM586.48 199.306l65.162-68.269 186.182 195.050-186.182 195.046-65.162-68.266 121.018-126.781-121.018-126.781z" />
<glyph unicode="&#xe927;" d="M512 960c-101.264 0-200.254-30.028-284.452-86.288s-149.822-136.222-188.574-229.778c-38.752-93.556-48.891-196.5-29.136-295.819s68.519-190.55 140.123-262.154c71.604-71.603 162.834-120.368 262.154-140.125 99.318-19.754 202.262-9.616 295.818 29.136 93.558 38.752 173.52 104.378 229.779 188.576s86.288 183.187 86.288 284.451c0 67.238-13.245 133.814-38.973 195.934-25.731 62.119-63.446 118.561-110.989 166.105s-103.987 85.257-166.106 110.988c-62.118 25.73-128.694 38.974-195.933 38.974zM512 38.4c-81.011 0-160.202 24.022-227.561 69.030-67.358 45.008-119.858 108.979-150.86 183.824s-39.113 157.2-23.308 236.656c15.804 79.453 54.815 152.437 112.099 209.721s130.268 96.294 209.72 112.099c79.456 15.804 161.814 7.693 236.659-23.308 74.842-31.002 138.813-83.501 183.821-150.86 45.008-67.357 69.030-146.55 69.030-227.562 0-108.634-43.155-212.816-119.968-289.632-76.816-76.813-180.998-119.968-289.632-119.968z" />
<glyph unicode="&#xe928;" d="M511.942 602.32c42.218 0 76.442 34.224 76.442 76.44 0 42.218-34.224 76.442-76.442 76.442s-76.442-34.224-76.442-76.442c0-42.216 34.224-76.44 76.442-76.44z" />
<glyph unicode="&#xe929;" d="M511.942 141.52c42.218 0 76.442 34.224 76.442 76.442s-34.224 76.442-76.442 76.442c-42.218 0-76.442-34.224-76.442-76.442s34.224-76.442 76.442-76.442z" />
<glyph unicode="&#xe92a;" d="M742.192 371.562c42.218 0 76.442 34.224 76.442 76.442s-34.224 76.442-76.442 76.442c-42.218 0-76.442-34.224-76.442-76.442s34.224-76.442 76.442-76.442z" />
<glyph unicode="&#xe92b;" d="M281.379 371.562c42.218 0 76.442 34.224 76.442 76.442s-34.224 76.442-76.442 76.442c-42.218 0-76.442-34.224-76.442-76.442s34.224-76.442 76.442-76.442z" />
<glyph unicode="&#xe92c;" d="M511.949 396.803c28.278 0 51.2 22.922 51.2 51.2s-22.922 51.2-51.2 51.2c-28.275 0-51.2-22.922-51.2-51.2s22.925-51.2 51.2-51.2z" />
<glyph unicode="&#xe92d;" horiz-adv-x="910" d="M455.111-64c-252.905 57.483-455.111 301.522-455.111 558.546v279.272l455.111 186.182 455.111-186.182v-279.272c0-257.118-202.206-501.063-455.111-558.546zM91.022 727.273v-232.726c2.601-107.62 39.611-211.402 105.366-295.464s156.633-143.772 258.723-169.993c102.090 26.22 192.967 85.931 258.722 169.993s102.767 187.844 105.367 295.464v232.726l-364.089 139.636-364.089-139.636z" />
<glyph unicode="&#xe92e;" horiz-adv-x="910" d="M455.111 494.544c62.837 0 113.778 52.099 113.778 116.363 0 64.267-50.941 116.364-113.778 116.364s-113.778-52.097-113.778-116.364c0-64.265 50.941-116.363 113.778-116.363z" />
<glyph unicode="&#xe92f;" horiz-adv-x="910" d="M227.556 308.363c22.432-41.808 55.323-76.769 95.306-101.302 39.984-24.536 85.623-37.766 132.25-38.335 46.626 0.569 92.265 13.798 132.25 38.335 39.982 24.533 72.875 59.494 95.306 101.302-1.138 88.252-152.098 139.637-227.556 139.637-75.867 0-226.418-51.385-227.556-139.637z" />
<glyph unicode="&#xe930;" glyph-name="convert-card" d="M925.868 780.802v-4.693c0-4.878-3.656-8.533-8.535-8.533h-384c-4.877 0-8.532 3.656-8.532 8.533v4.693c0 37.643 5.018 56.005 15.096 66.008 10.115 10.038 28.733 15.058 66.824 15.058h237.228c38.088 0 56.709-5.021 66.824-15.058 10.076-10.003 15.096-28.365 15.096-66.008zM524.8 690.772c0 4.877 3.656 8.535 8.532 8.535h384c4.879 0 8.535-3.658 8.535-8.535v-84.905c0-37.645-5.020-56.008-15.096-66.010-10.115-10.038-28.736-15.058-66.824-15.058h-237.228c-38.090 0-56.709 5.020-66.824 15.058-10.079 10.002-15.096 28.365-15.096 66.010v84.905zM499.218 290.132v-4.692c0-4.877-3.658-8.532-8.535-8.532h-383.999c-4.878 0-8.534 3.656-8.534 8.532v4.692c0 37.645 5.018 56.005 15.097 66.010 10.114 10.038 28.734 15.058 66.823 15.058h237.228c38.088 0 56.709-5.020 66.821-15.058 10.079-10.004 15.099-28.365 15.099-66.010zM98.15 200.105c0 4.877 3.656 8.532 8.534 8.532h383.999c4.877 0 8.535-3.656 8.535-8.532v-84.908c0-37.642-5.020-56.005-15.099-66.007-10.112-10.038-28.733-15.060-66.821-15.060h-237.228c-38.089 0-56.709 5.023-66.823 15.060-10.079 10.002-15.097 28.365-15.097 66.007v84.908z" />
<glyph unicode="&#xe931;" glyph-name="calendar" d="M714.66 808.109v66.56c0 17.493-14.508 32-32 32s-32-14.507-32-32v-64h-277.332v64c0 17.493-14.508 32-32 32-17.495 0-32-14.507-32-32v-66.56c-115.201-10.667-171.094-79.36-179.628-181.334-0.854-12.372 9.386-22.612 21.333-22.612h721.919c12.375 0 22.615 10.665 21.335 22.612-8.535 101.974-64.428 170.667-179.628 181.334zM853.332 540.163h-682.666c-23.467 0-42.667-19.2-42.667-42.668v-262.825c0-128 64-213.335 213.332-213.335h341.335c149.332 0 213.332 85.335 213.332 213.335v262.825c0 23.468-19.2 42.668-42.668 42.668zM392.96 183.043c-2.132-1.708-4.268-3.84-6.4-5.12-2.56-1.708-5.12-2.988-7.68-3.84-2.56-1.28-5.12-2.132-7.68-2.56-2.988-0.428-5.548-0.852-8.532-0.852-5.548 0-11.095 1.28-16.215 3.412-5.545 2.132-9.812 5.12-14.080 8.96-7.68 8.108-12.372 19.2-12.372 30.292 0 11.095 4.692 22.188 12.372 30.295 4.268 3.84 8.535 6.825 14.080 8.96 7.68 3.412 16.215 4.265 24.748 2.56 2.56-0.428 5.12-1.28 7.68-2.56 2.56-0.855 5.12-2.135 7.68-3.84 2.132-1.708 4.268-3.415 6.4-5.12 7.68-8.108 12.372-19.2 12.372-30.295 0-11.092-4.692-22.185-12.372-30.292zM392.96 332.375c-8.108-7.68-19.2-12.372-30.292-12.372-11.095 0-22.188 4.692-30.295 12.372-7.68 8.108-12.372 19.2-12.372 30.295 0 11.092 4.692 22.185 12.372 30.292 11.948 11.948 30.72 15.788 46.508 8.96 5.548-2.132 10.24-5.12 14.080-8.96 7.68-8.108 12.372-19.2 12.372-30.292 0-11.095-4.692-22.188-12.372-30.295zM542.292 183.043c-8.105-7.68-19.2-12.372-30.292-12.372s-22.188 4.692-30.292 12.372c-7.68 8.108-12.375 19.2-12.375 30.292 0 11.095 4.695 22.188 12.375 30.295 15.785 15.785 44.8 15.785 60.585 0 7.68-8.108 12.375-19.2 12.375-30.295 0-11.092-4.695-22.185-12.375-30.292zM542.292 332.375c-2.132-1.705-4.265-3.412-6.4-5.12-2.56-1.705-5.12-2.985-7.68-3.84-2.56-1.28-5.12-2.132-7.68-2.56-2.985-0.425-5.545-0.852-8.532-0.852-11.092 0-22.188 4.692-30.292 12.372-7.68 8.108-12.375 19.2-12.375 30.295 0 11.092 4.695 22.185 12.375 30.292 3.84 3.84 8.532 6.828 14.080 8.96 15.785 6.828 34.56 2.988 46.505-8.96 7.68-8.108 12.375-19.2 12.375-30.292 0-11.095-4.695-22.188-12.375-30.295zM691.628 183.043c-8.108-7.68-19.2-12.372-30.295-12.372-11.092 0-22.185 4.692-30.292 12.372-7.68 8.108-12.372 19.2-12.372 30.292 0 11.095 4.692 22.188 12.372 30.295 15.788 15.785 44.8 15.785 60.588 0 7.68-8.108 12.372-19.2 12.372-30.295 0-11.092-4.692-22.185-12.372-30.292zM691.628 332.375c-2.135-1.705-4.268-3.412-6.4-5.12-2.56-1.705-5.12-2.985-7.68-3.84-2.56-1.28-5.12-2.132-7.68-2.56-2.988-0.425-5.975-0.852-8.535-0.852-11.092 0-22.185 4.692-30.292 12.372-7.68 8.108-12.372 19.2-12.372 30.295 0 11.092 4.692 22.185 12.372 30.292 4.268 3.84 8.532 6.828 14.080 8.96 7.68 3.412 16.212 4.268 24.748 2.56 2.56-0.428 5.12-1.28 7.68-2.56 2.56-0.852 5.12-2.132 7.68-3.84 2.132-1.708 4.265-3.412 6.4-5.12 7.68-8.108 12.372-19.2 12.372-30.292 0-11.095-4.692-22.188-12.372-30.295z" />
<glyph unicode="&#xe932;" d="M0 468.48c0 231.706 0 347.557 71.982 419.538s187.833 71.982 419.538 71.982h40.96c231.706 0 347.556 0 419.538-71.982s71.982-187.833 71.982-419.538v-40.96c0-231.706 0-347.556-71.982-419.538s-187.832-71.982-419.538-71.982h-40.96c-231.706 0-347.557 0-419.538 71.982s-71.982 187.832-71.982 419.538v40.96z" />
<glyph unicode="&#xe933;" d="M376.845 243.594l9.374-4.639c39.066-23.163 82.815-33.976 126.569-33.976 137.503 0 250.004 111.201 250.004 247.11 0 64.865-26.568 128.187-73.441 174.52s-109.379 72.588-176.563 72.588c-137.504 0-250.009-111.199-248.445-248.654 0-46.33 14.063-91.12 37.5-129.73l6.249-9.267-24.998-91.121 93.751 23.168z" />
<glyph unicode="&#xe934;" d="M715.914 651.321c-53.125 54.054-126.566 83.399-201.564 83.399-159.378 0-287.506-128.187-285.945-284.174 0-49.42 14.063-97.302 37.502-140.546l-40.627-146.719 151.565 38.61c42.188-23.168 89.062-33.976 135.943-33.976 157.814 0 285.942 128.189 285.942 284.172 0 75.678-29.691 146.723-82.816 199.234zM514.35 215.788c-42.191 0-84.379 10.813-120.317 32.435l-9.374 4.634-90.626-23.168 23.437 88.033-6.249 9.267c-68.752 109.655-35.938 254.833 76.563 322.789 112.502 67.954 257.818 35.52 326.569-75.678s35.937-254.832-76.564-322.789c-35.937-23.163-79.688-35.523-123.438-35.523zM651.848 387.22l-17.183 7.721c0 0-25.001 10.813-40.627 18.534-1.562 0-3.123 1.546-4.69 1.546-4.685 0-7.813-1.546-10.936-3.092 0 0-1.562-1.541-23.439-26.255-1.562-3.087-4.685-4.634-7.813-4.634h-1.562c-1.562 0-4.685 1.546-6.252 3.092l-7.813 3.087c-17.183 7.721-32.809 16.988-45.311 29.343-3.125 3.092-7.813 6.18-10.938 9.267-10.938 10.813-21.876 23.168-29.686 37.068l-1.564 3.089c-1.562 1.545-1.562 3.088-3.125 6.177 0 3.088 0 6.177 1.563 7.722 0 0 6.25 7.722 10.936 12.355 3.127 3.090 4.688 7.722 7.813 10.811 3.125 4.634 4.688 10.811 3.125 15.446-1.561 7.722-20.312 49.422-24.998 58.688-3.127 4.634-6.249 6.177-10.938 7.722h-17.187c-3.127 0-6.249-1.545-9.377-1.545l-1.564-1.543c-3.125-1.546-6.249-4.634-9.374-6.177-3.125-3.091-4.688-6.177-7.813-9.268-10.938-13.9-17.187-30.888-17.187-47.877 0-12.355 3.125-24.711 7.813-35.523l1.564-4.634c14.063-29.343 32.812-55.599 57.815-78.767l6.249-6.175c4.686-4.634 9.375-7.726 12.499-12.355 32.814-27.802 70.316-47.882 112.5-58.691 4.69-1.546 10.941-1.546 15.626-3.087h15.626c7.813 0 17.188 3.087 23.439 6.175 4.685 3.087 7.813 3.087 10.936 6.18l3.128 3.087c3.123 3.092 6.246 4.634 9.375 7.721 3.123 3.087 6.246 6.18 7.808 9.267 3.128 6.18 4.69 13.901 6.252 21.622v10.813c0 0-1.562 1.541-4.69 3.087z" />
<glyph unicode="&#xe935;" glyph-name="LinkedIn" d="M948.198 960h-872.599c-41.8 0-75.6-33-75.6-73.8v-876.2c0-40.801 33.8-73.999 75.6-73.999h872.599c41.8 0 75.802 33.198 75.802 73.8v876.4c0 40.8-34.002 73.8-75.802 73.8zM303.8 87.398h-152v488.802h152v-488.802zM227.8 642.8c-48.8 0-88.2 39.4-88.2 88s39.4 88 88.2 88c48.6 0 88-39.4 88-88 0-48.4-39.4-88-88-88zM872.602 87.398h-151.803v237.604c0 56.596-0.998 129.598-78.996 129.598-79.002 0-91.003-61.799-91.003-125.599v-241.603h-151.599v488.802h145.598v-66.8h2.002c20.198 38.4 69.801 79 143.601 79 153.8 0 182.2-101.2 182.2-232.801v-268.201z" />
<glyph unicode="&#xe936;" glyph-name="Facebook" d="M342.22 356.265v-449.705c0-7.306 5.922-13.225 13.227-13.225h185.174c7.306 0 13.225 5.919 13.225 13.225v449.705c0 7.306 5.924 13.23 13.23 13.23h132.265c7.306 0 13.225 5.919 13.225 13.225v158.72c0 7.305-5.919 13.226-13.225 13.226h-132.265c-7.306 0-13.23 5.913-13.23 13.218v119.049c0 52.906 66.135 79.36 92.59 79.36h79.36c7.301 0 13.225 5.922 13.225 13.226v158.72c0 7.305-5.919 13.227-13.225 13.227h-171.95c-126.975 0-211.626-132.267-211.626-211.627v-171.946c0-7.305-5.921-13.227-13.226-13.227h-132.266c-7.305 0-13.227-5.922-13.227-13.226v-158.72c0-7.306 5.922-13.225 13.227-13.225h132.266c7.305 0 13.226-5.924 13.226-13.23z" />
<glyph unicode="&#xe937;" glyph-name="Instagram" d="M300.916 956.928c54.598 2.513 72.006 3.072 211.084 3.072 139.080 0 156.488-0.605 211.036-3.072 54.554-2.467 91.786-11.171 124.37-23.785 34.12-12.893 65.070-33.047 90.67-59.113 26.066-25.553 46.172-56.46 59.018-90.624 12.662-32.582 21.32-69.818 23.834-124.276 2.514-54.691 3.072-72.099 3.072-211.13 0-139.080-0.604-156.488-3.072-211.082-2.468-54.461-11.172-91.694-23.834-124.278-12.846-34.171-32.983-65.126-59.018-90.716-25.6-26.066-56.55-46.172-90.67-59.018-32.584-12.662-69.816-21.32-124.278-23.834-54.641-2.514-72.049-3.072-211.128-3.072-139.078 0-156.486 0.604-211.084 3.072-54.458 2.468-91.695 11.172-124.276 23.834-34.168 12.846-65.125 32.988-90.717 59.018-26.047 25.569-46.205 56.509-59.066 90.67-12.614 32.584-21.271 69.816-23.785 124.278-2.513 54.687-3.072 72.095-3.072 211.128 0 139.078 0.605 156.486 3.072 211.037s11.171 91.788 23.785 124.369c12.88 34.161 33.053 65.102 59.113 90.671 25.555 26.042 56.482 46.199 90.624 59.066 32.582 12.614 69.818 21.271 124.276 23.785h0.047zM718.894 864.768c-53.99 2.467-70.19 2.979-206.894 2.979s-152.902-0.512-206.895-2.979c-49.943-2.281-77.032-10.612-95.092-17.641-23.878-9.309-40.96-20.34-58.88-38.26-16.987-16.526-30.060-36.644-38.26-58.88-7.029-18.060-15.36-45.149-17.641-95.092-2.467-53.993-2.979-70.191-2.979-206.895s0.512-152.904 2.979-206.894c2.281-49.946 10.612-77.036 17.641-95.094 8.192-22.2 21.271-42.358 38.26-58.88 16.524-16.988 36.678-30.070 58.88-38.262 18.060-7.025 45.149-15.36 95.092-17.638 53.993-2.468 70.144-2.98 206.895-2.98s152.904 0.512 206.894 2.98c49.946 2.278 77.036 10.614 95.094 17.638 23.875 9.313 40.96 20.342 58.88 38.262 16.988 16.522 30.070 36.68 38.262 58.88 7.025 18.058 15.36 45.148 17.638 95.094 2.468 53.99 2.98 70.19 2.98 206.894s-0.512 152.902-2.98 206.895c-2.278 49.943-10.614 77.032-17.638 95.092-9.313 23.878-20.342 40.96-38.262 58.88-16.527 16.986-36.644 30.058-58.88 38.26-18.058 7.029-45.148 15.36-95.094 17.641zM446.604 290.166c36.522-15.206 77.188-17.254 115.055-5.806s70.584 35.692 92.564 68.582c21.98 32.891 31.857 72.397 27.95 111.763-3.912 39.367-21.366 76.154-49.388 104.080-17.864 17.851-39.46 31.52-63.242 40.023-23.777 8.502-49.147 11.626-74.277 9.147-25.132-2.479-49.401-10.499-71.060-23.483s-40.172-30.609-54.202-51.606c-14.031-20.997-23.231-44.844-26.94-69.823s-1.832-50.469 5.493-74.641c7.326-24.166 19.919-46.408 36.873-65.126 16.953-18.714 37.846-33.439 61.174-43.11zM325.911 634.089c24.438 24.437 53.449 43.822 85.379 57.048s66.15 20.033 100.71 20.033c34.56 0 68.782-6.807 100.71-20.033s60.938-32.61 85.376-57.048c24.438-24.438 43.827-53.449 57.052-85.379s20.029-66.15 20.029-100.71c0-34.56-6.804-68.782-20.029-100.71s-32.614-60.938-57.052-85.376c-49.352-49.357-116.291-77.082-186.086-77.082-69.797 0-136.735 27.725-186.089 77.082-49.354 49.352-77.080 116.291-77.080 186.086 0 69.797 27.726 136.735 77.080 186.089zM833.536 671.977c6.057 5.712 10.906 12.582 14.259 20.201s5.14 15.835 5.263 24.159c0.123 8.324-1.428 16.588-4.557 24.303-3.133 7.714-7.777 14.722-13.665 20.609s-12.892 10.532-20.608 13.662c-7.716 3.13-15.98 4.68-24.305 4.559-8.32-0.121-16.538-1.912-24.156-5.265s-14.49-8.202-20.204-14.257c-11.11-11.778-17.193-27.421-16.957-43.61s6.774-31.648 18.222-43.097c11.448-11.448 26.911-17.985 43.095-18.22 16.189-0.236 31.836 5.847 43.612 16.956z" />
<glyph unicode="&#xe939;" glyph-name="icon-f04" horiz-adv-x="1152" d="M352.922 897.439c5.718 15.241 15.952 28.374 29.331 37.647s29.27 14.242 45.549 14.247h296.374c16.288 0.007 32.189-4.958 45.578-14.231 13.392-9.273 23.632-22.413 29.354-37.662l320-853.333c4.544-12.106 6.086-25.133 4.49-37.965-1.594-12.835-6.272-25.088-13.638-35.715s-17.2-19.312-28.656-25.309c-11.456-5.994-24.195-9.123-37.126-9.117h-189.709c-16.278 0.003-32.166 4.973-45.549 14.246-13.379 9.27-23.61 22.403-29.331 37.645l-203.571 542.88-103.040-274.771h104.8c16.288 0.006 32.189-4.96 45.578-14.234 13.392-9.274 23.632-22.413 29.354-37.661l60-160c4.544-12.106 6.086-25.133 4.493-37.965-1.597-12.835-6.275-25.088-13.642-35.715s-17.2-19.312-28.656-25.309c-11.456-5.994-24.195-9.123-37.126-9.117h-529.921c-12.926 0.003-25.66 3.136-37.109 9.136s-21.276 14.685-28.636 25.312c-7.36 10.624-12.036 22.877-13.627 35.706-1.591 12.826-0.050 25.85 4.492 37.952l319.947 853.333zM446.256 842.665l-299.894-800h453.014l-40 106.666h-163.36c-8.618 0.003-17.104 2.093-24.733 6.093-7.632 4-14.182 9.786-19.088 16.867s-8.026 15.248-9.088 23.798c-1.062 8.547-0.035 17.229 2.989 25.296l180 480c3.818 10.154 10.643 18.902 19.562 25.077s19.51 9.483 30.358 9.483c10.848 0 21.437-3.308 30.358-9.483 8.918-6.175 15.741-14.923 19.562-25.077l247.040-658.72h132.746l-300 800h-259.466z" />
<glyph unicode="&#xe93a;" glyph-name="icon-f03" horiz-adv-x="998" d="M473.779 934.62c7.352 5.14 16.106 7.896 25.075 7.896 8.972 0 17.726-2.756 25.075-7.896l437.608-306.32c5.774-4.036 10.487-9.405 13.74-15.651s4.949-13.189 4.947-20.231v-306.32c0.003-7.042-1.694-13.982-4.947-20.231-3.253-6.246-7.966-11.616-13.74-15.651l-437.608-306.32c-7.349-5.138-16.103-7.895-25.075-7.895-8.969 0-17.723 2.757-25.075 7.895l-437.606 306.32c-5.772 4.036-10.486 9.405-13.739 15.651-3.253 6.249-4.95 13.189-4.947 20.231v306.32c-0.003 7.042 1.694 13.984 4.947 20.231s7.966 11.616 13.739 15.651l437.606 306.32zM105.009 508.398v-138.279l98.724 69.141-98.724 69.138zM280.051 385.872l-142.484-99.774 317.528-222.3v199.546l-175.044 122.528zM542.615 263.344v-199.546l317.527 222.3-142.483 99.774-175.044-122.528zM793.975 439.259l98.724-69.141v138.279l-98.724-69.138zM860.142 592.418l-142.483-99.774-175.044 122.528v199.546l317.527-222.3zM455.094 814.718v-199.546l-175.044-122.528-142.484 99.774 317.528 222.3zM498.853 539.031l-142.483-99.772 142.483-99.774 142.486 99.774-142.486 99.772z" />
<glyph unicode="&#xe93b;" glyph-name="icon-f02" horiz-adv-x="717" d="M523.346 846.223c-15.087 0-29.556-5.993-40.226-16.662-10.667-10.669-16.66-25.139-16.66-40.226s5.994-29.558 16.66-40.226c10.67-10.669 25.139-16.663 40.226-16.663 15.090 0 29.559 5.994 40.226 16.663 10.67 10.669 16.664 25.139 16.664 40.226s-5.994 29.558-16.664 40.226c-10.667 10.669-25.136 16.662-40.226 16.662zM352.679 789.334c0 37 12.025 72.998 34.26 102.571 22.238 29.573 53.484 51.118 89.027 61.39 35.546 10.272 73.469 8.714 108.052-4.439s63.956-37.189 83.692-68.486c19.736-31.297 28.764-68.161 25.73-105.036-3.038-36.875-17.975-71.765-42.564-99.413-24.586-27.648-57.494-46.557-93.764-53.876-36.267-7.32-73.933-2.655-107.322 13.292l-113.777-113.779c10.694-22.241 16.667-47.217 16.667-73.557 0-26.337-5.973-51.313-16.667-73.557l113.777-113.777c36.332 17.353 77.623 21.303 116.582 11.155 38.96-10.151 73.079-33.744 96.324-66.618 23.245-32.87 34.12-72.902 30.706-113.019-3.417-40.113-20.903-77.728-49.374-106.199-28.467-28.467-66.082-45.954-106.199-49.37-40.113-3.417-80.145 7.458-113.019 30.706-32.87 23.245-56.467 57.361-66.615 96.321-10.151 38.96-6.199 80.254 11.155 116.582l-113.779 113.78c-26.015-12.418-54.751-18.039-83.526-16.346s-56.654 10.646-81.034 26.027c-24.38 15.377-44.468 36.683-58.389 61.921-13.921 25.242-21.222 53.6-21.222 82.425s7.301 57.18 21.222 82.422c13.921 25.242 34.008 46.544 58.389 61.925 24.38 15.377 52.258 24.33 81.034 26.023s57.512-3.929 83.526-16.343l113.779 113.72c-10.991 22.963-16.688 48.1-16.671 73.557zM182.014 504.89c-15.088 0-29.558-5.994-40.226-16.664-10.669-10.667-16.662-25.136-16.662-40.226 0-15.087 5.993-29.556 16.662-40.226 10.669-10.667 25.139-16.66 40.226-16.66s29.558 5.994 40.226 16.66c10.669 10.67 16.663 25.139 16.663 40.226 0 15.090-5.994 29.559-16.663 40.226-10.669 10.67-25.139 16.664-40.226 16.664zM523.346 163.557c-7.472 0.017-14.875-1.447-21.777-4.308-6.905-2.86-13.172-7.062-18.442-12.36-9.305-9.308-15.094-21.555-16.384-34.656-1.287-13.097 2.007-26.238 9.322-37.181 7.311-10.94 18.193-19.009 30.792-22.828 12.595-3.816 26.126-3.151 38.284 1.888 12.158 5.041 22.193 14.138 28.396 25.747s8.189 25.009 5.618 37.919c-2.57 12.909-9.537 24.525-19.715 32.874-10.175 8.349-22.931 12.909-36.093 12.906z" />
<glyph unicode="&#xe93c;" glyph-name="icon-f01" d="M691.666 921.459c6.101 10.947 16.29 19.032 28.336 22.488s24.971 2.001 35.948-4.046l229.311-126.388c5.467-3.017 10.286-7.086 14.177-11.971s6.778-10.491 8.496-16.495c1.718-6.004 2.233-12.289 1.516-18.493-0.72-6.204-2.657-12.205-5.7-17.658l-76.231-136.771c-49.655-89.264-130.677-156.922-227.365-189.867l280.508-154.596c5.473-3.012 10.294-7.077 14.191-11.961s6.79-10.487 8.511-16.492c1.724-6.005 2.241-12.291 1.527-18.497s-2.648-12.208-5.692-17.664l-127.053-228.031c-6.11-10.951-16.31-19.035-28.368-22.482-12.055-3.447-24.988-1.977-35.962 4.087l-320.95 176.924c-13.343 7.39-29.070 9.202-43.742 5.035-14.674-4.167-27.105-13.969-34.574-27.267l-76.231-136.724c-6.101-10.945-16.29-19.032-28.336-22.488s-24.971-2-35.948 4.048l-229.31 126.339c-5.468 3.018-10.286 7.086-14.177 11.972-3.891 4.884-6.779 10.49-8.497 16.495s-2.233 12.288-1.515 18.492c0.718 6.204 2.655 12.206 5.699 17.658l76.231 136.769c49.656 89.267 130.677 156.925 227.367 189.867l-280.511 154.596c-5.472 3.015-10.295 7.080-14.19 11.964-3.896 4.881-6.788 10.487-8.511 16.492s-2.241 12.291-1.527 18.497c0.715 6.205 2.649 12.208 5.691 17.664l127.052 228.030c6.11 10.951 16.31 19.036 28.367 22.483s24.989 1.977 35.965-4.089l320.997-176.924c27.921-15.408 62.956-5.215 78.222 22.187l76.325 136.818h-0.048zM751.542 834.087l-53.285-95.573c-19.684-35.17-52.48-61.126-91.233-72.203-38.75-11.073-80.31-6.372-115.607 13.086l-279.703 154.169-80.877-145.161 279.277-153.933c154.547-85.191 349.156-29.534 434.631 123.83l53.097 95.193-146.301 80.592zM613.919 361.529c-154.547 85.191-349.156 29.537-434.631-123.827l-53.096-95.195 146.299-80.592 53.286 95.573c19.675 35.18 52.471 61.144 91.227 72.22 38.753 11.076 80.319 6.366 115.612-13.104l279.654-154.169 80.924 145.163-279.276 153.93z" />
<glyph unicode="&#xe93d;" glyph-name="code1" horiz-adv-x="1050" d="M902.518 533.332h-768.001c-23.467 0-42.667-19.2-42.667-42.668v-221.44c0-8.532 0.427-17.065 1.28-25.6 8.533-131.412 89.6-212.48 221.013-221.012 8.535-0.852 17.068-1.28 25.6-1.28h357.548c8.532 0 17.068 0.428 25.6 1.28 131.412 8.532 212.48 89.6 221.012 221.012 0.855 8.535 1.28 17.068 1.28 25.6v221.44c0 23.468-19.2 42.668-42.665 42.668zM347.85 270.932c14.508-21.332 34.132-38.828 56.748-50.348 16.212-7.68 22.612-26.88 14.505-43.092-5.545-11.092-17.065-17.492-28.585-17.492-4.695 0-9.815 1.28-14.080 3.412-33.28 16.212-61.44 41.388-81.495 71.68-17.065 25.6-17.065 58.88 0 84.48 20.055 30.292 48.215 55.468 81.495 71.68 15.785 8.108 34.985 1.708 42.665-14.080 8.108-16.212 1.708-35.412-14.505-43.092-22.615-11.52-42.24-29.015-56.748-50.348-2.56-3.84-2.56-8.96 0-12.8zM751.050 235.092c-20.48-30.292-48.64-55.468-81.492-71.68-4.695-2.132-9.388-3.412-14.080-3.412-11.948 0-23.040 6.4-28.588 17.492-8.108 16.212-1.708 35.412 14.080 43.092 23.040 11.52 42.668 29.015 56.748 50.348 2.985 3.84 2.985 8.96 0 12.8-14.080 21.332-33.708 38.828-56.748 50.348-15.788 7.68-22.188 26.88-14.080 43.092 7.68 15.788 26.88 22.188 42.668 14.080 32.852-16.212 61.012-41.388 81.492-71.68 17.068-25.6 17.068-58.88 0-84.48zM945.183 626.775v-8.108c0-23.468-19.2-42.668-42.665-42.668l-768.001-0.425c-23.467 0-42.667 19.2-42.667 42.665v8.535c0 8.532 0.427 17.065 1.28 25.6 8.533 131.412 89.6 212.479 221.013 221.012 8.535 0.853 17.068 1.28 25.6 1.28h357.548c8.532 0 17.068-0.427 25.6-1.28 131.412-8.534 212.48-89.6 221.012-221.012 0.855-8.535 1.28-17.068 1.28-25.6z" />
<glyph unicode="&#xe93e;" glyph-name="key" d="M844.349 779.947c-126.292 125.867-331.092 125.867-456.532 0-88.32-87.467-114.772-213.334-80.64-324.267l-200.533-200.532c-14.080-14.508-23.893-43.095-20.907-63.575l12.8-93.012c4.694-30.72 33.28-59.732 64-64l93.014-12.8c20.479-2.988 49.066 6.4 63.574 21.332l34.985 34.988c8.535 8.108 8.535 21.76 0 30.292l-82.772 82.775c-12.372 12.372-12.372 32.852 0 45.225 12.372 12.375 32.852 12.375 45.228 0l83.2-83.2c8.105-8.105 21.76-8.105 29.865 0l90.455 90.028c110.505-34.56 236.372-7.68 324.265 79.788 125.868 125.865 125.868 331.092 0 456.959zM618.644 448c-58.88 0-106.668 47.788-106.668 106.668s47.788 106.665 106.668 106.665c58.88 0 106.665-47.785 106.665-106.665s-47.785-106.668-106.665-106.668z" />
<glyph unicode="&#xe93f;" glyph-name="lamp-charge" d="M651.108 21.335c-2.56 0-5.548 0.425-8.108 1.28-85.76 24.32-175.785 24.32-261.545 0-15.788-4.268-32.428 4.692-36.695 20.48-4.692 15.785 4.695 32.425 20.48 36.692 96.428 27.308 197.975 27.308 294.403 0 15.785-4.692 25.172-20.908 20.477-36.692-4.265-13.228-16.212-21.76-29.012-21.76zM819.64 688.64c-44.372 89.599-130.132 155.733-229.548 177.493-104.105 23.040-210.772-1.707-292.265-67.414-81.921-65.28-128.428-162.987-128.428-267.519 0-110.508 66.133-226.135 165.973-293.12v-35.415c-0.425-11.945-0.852-30.292 13.655-45.225 14.932-15.36 37.12-17.068 54.612-17.068h218.88c23.040 0 40.532 6.4 52.48 18.348 16.212 16.64 15.788 37.972 15.36 49.492v29.868c132.268 89.172 215.468 277.332 129.28 450.56zM585.4 464.212l-45.652-79.36c-5.975-10.24-16.64-16.212-27.735-16.212-5.545 0-11.092 1.28-15.785 4.265-15.36 8.96-20.48 28.588-11.948 43.52l36.268 63.148h-35.84c-21.335 0-38.828 9.388-48.215 25.172-9.385 16.215-8.532 35.84 2.135 54.615l45.652 79.36c8.96 15.36 28.588 20.48 43.52 11.945 15.36-8.96 20.48-28.585 11.948-43.52l-36.268-63.145h35.84c21.332 0 38.828-9.388 48.212-25.175 9.388-16.212 8.535-36.265-2.132-54.612z" />
<glyph unicode="&#xe940;" glyph-name="security-safe" d="M892.17 485.548v187.305c0 34.988-26.452 74.668-59.308 87.895l-237.652 97.28c-53.332 21.76-113.492 21.76-166.828 0l-237.653-97.28c-32.427-13.227-58.88-52.907-58.88-87.895v-187.305c0-208.64 151.468-404.055 358.4-461.228 14.080-3.84 29.44-3.84 43.52 0 206.932 57.172 358.4 252.588 358.4 461.228zM544.010 410.88v-112.212c0-17.495-14.508-32-32-32s-32 14.505-32 32v112.212c-43.092 13.652-74.668 53.76-74.668 101.12 0 58.88 47.788 106.668 106.668 106.668s106.668-47.788 106.668-106.668c0-47.788-31.575-87.468-74.668-101.12z" />
<glyph unicode="&#xe942;" horiz-adv-x="1144" d="M478.825 438.658c-9.882-9.882-12.448-24.895-6.424-37.506l135.27-282.919c5.484-11.457 17.059-18.73 29.717-18.73h0.801c12.966 0.307 24.543 8.189 29.576 20.167l38.517 91.528 91.531 38.517c11.954 5.036 19.835 16.613 20.164 29.579 0.331 12.963-7.011 24.916-18.727 30.494l-282.919 135.27c-12.589 6.048-27.624 3.458-37.506-6.4zM704.66 282.022l-36.304-15.27c-7.93-3.343-14.261-9.647-17.577-17.577l-15.27-36.307-63.389 132.566 132.539-63.413z" />
<glyph unicode="&#xe943;" horiz-adv-x="1144" d="M445.106 252.717c3.765-1.388 7.647-2.069 11.436-2.069 13.387 0 25.976 8.21 30.895 21.504 6.328 17.059-2.376 36.024-19.435 42.33-39.602 14.682-66.214 52.917-66.214 95.178 0 55.953 45.508 101.457 101.46 101.457 42.21 0 80.447-26.564 95.13-66.093 6.328-17.059 25.317-25.742 42.351-19.39 17.059 6.331 25.742 25.296 19.39 42.354-24.26 65.199-87.296 109.011-156.895 109.011-92.283 0-167.343-75.083-167.343-167.34 0-69.647 43.909-132.731 109.225-156.943z" />
<glyph unicode="&#xe944;" horiz-adv-x="1144" d="M1099.294 943.588h-1054.118c-18.188 0-32.941-14.753-32.941-32.941v-925.269c0-18.191 14.753-32.943 32.941-32.943h1054.118c18.188 0 32.943 14.752 32.943 32.943v925.269c0 18.188-14.755 32.941-32.943 32.941zM1066.351 18.318h-988.234v640.069h988.234v-640.069zM1066.351 724.271h-988.234v153.435h988.234v-153.435z" />
<glyph unicode="&#xe945;" horiz-adv-x="1144" d="M172.859 768.341c18.115 0 32.8 14.685 32.8 32.8s-14.685 32.8-32.8 32.8c-18.115 0-32.8-14.685-32.8-32.8s14.685-32.8 32.8-32.8z" />
<glyph unicode="&#xe946;" horiz-adv-x="1144" d="M272.197 770.889c16.738 6.938 24.683 26.131 17.745 42.869s-26.131 24.683-42.869 17.745c-16.738-6.938-24.683-26.132-17.745-42.87s26.131-24.683 42.869-17.745z" />
<glyph unicode="&#xe947;" horiz-adv-x="1144" d="M358.903 770.919c16.736 6.938 24.681 26.131 17.745 42.869-6.939 16.738-26.133 24.683-42.869 17.745-16.739-6.938-24.684-26.131-17.745-42.869 6.936-16.738 26.13-24.683 42.869-17.745z" />
<glyph unicode="&#xe948;" d="M866.296 802.295c-94.634 94.632-220.465 146.758-354.296 146.758s-259.663-52.126-354.295-146.758c-94.632-94.632-146.758-220.463-146.758-354.295s52.126-259.662 146.758-354.296c94.632-94.631 220.463-146.758 354.295-146.758s259.662 52.127 354.296 146.758c94.631 94.634 146.758 220.465 146.758 354.296s-52.127 259.663-146.758 354.295zM512 5.896c-243.768 0-442.105 198.335-442.105 442.104s198.337 442.105 442.105 442.105c243.769 0 442.104-198.337 442.104-442.105s-198.335-442.104-442.104-442.104z" />
<glyph unicode="&#xe949;" d="M823.347 718.526c-10.674 12.274-29.305 13.579-41.58 2.884-12.272-10.695-13.579-29.305-2.883-41.58 55.978-64.337 86.8-146.672 86.8-231.831 0-195.032-158.653-353.684-353.684-353.684s-353.684 158.653-353.684 353.684c0 195.032 158.653 353.684 353.684 353.684 16.274 0 29.475 13.2 29.475 29.474s-13.202 29.474-29.475 29.474c-227.517 0-412.632-185.115-412.632-412.632s185.115-412.632 412.632-412.632c227.517 0 412.632 185.115 412.632 412.632 0 99.39-35.98 195.452-101.284 270.526z" />
<glyph unicode="&#xe94a;" d="M187.789 448c0-178.78 145.431-324.209 324.211-324.209s324.209 145.43 324.209 324.209c0 178.78-145.43 324.211-324.209 324.211s-324.211-145.431-324.211-324.211zM777.265 448c0-146.273-118.991-265.265-265.265-265.265s-265.263 118.991-265.263 265.265c0 146.273 118.99 265.263 265.263 265.263s265.265-118.99 265.265-265.263z" />
<glyph unicode="&#xe94b;" d="M1012.062 911.948l-252.737-943.18c-2.905-10.841-11.727-19.095-22.738-21.283-1.894-0.38-3.832-0.547-5.726-0.547-9.073 0-17.769 4.188-23.409 11.558l-246.442 322.021v74.801l9.62 9.62 247.264-323.075 224.019 836.022-836.040-224.001 248.989-190.566c12.927-9.895 15.39-28.381 5.495-41.326-9.895-12.927-28.4-15.368-41.326-5.473l-296.526 226.924c-8.926 6.823-13.179 18.127-10.989 29.138 2.168 11.011 10.421 19.831 21.263 22.737l943.178 252.737c10.17 2.716 21.032-0.189 28.465-7.642 7.451-7.453 10.359-18.295 7.642-28.463z" />
<glyph unicode="&#xe94c;" d="M403.874 377.657c-1.011-2.735-1.601-5.6-1.768-8.505 0.146 2.926 0.736 5.791 1.768 8.505z" />
<glyph unicode="&#xe94d;" d="M460.999 152.573c10.065 3.032 21.431 0.569 29.389-7.389 11.517-11.496 11.517-30.168 0-41.685l-38.020-37.998c-5.643-5.643-13.18-8.631-20.841-8.631-3.791 0-7.621 0.736-11.264 2.253-11.032 4.546-18.211 15.303-18.211 27.22v281.18c0.043 3.452 0.633 6.885 1.832 10.127-0.022 0.019-0.022 0.019 0 0.019 1.452 4.002 3.789 7.664 6.799 10.695l362.949 362.948c11.515 11.516 30.189 11.516 41.682 0 11.517-11.516 11.517-30.168 0-41.684l-354.315-354.315v-202.739z" />
<glyph unicode="&#xe94e;" horiz-adv-x="916" d="M753.963 609.347c-47.155 0-91.661-20.968-121.829-56.086l-317.952 183.58c5.643 16.589 8.569 34.084 8.569 51.747 0 88.463-71.999 160.463-160.481 160.463s-160.481-72-160.481-160.484c0-78.632 56.883-144.211 131.639-157.833v-365.471c-74.756-13.643-131.639-79.201-131.639-157.833 0-88.484 71.999-160.485 160.481-160.485s160.481 72.001 160.481 160.485c0 18.189-3.115 36.169-9.073 53.181l318.456 183.851c30.189-35.137 74.674-56.104 121.829-56.104 88.484 0 160.482 72.001 160.482 160.482 0 88.484-71.998 160.507-160.482 160.507zM60.736 788.568c0 55.979 45.557 101.537 101.535 101.537s101.535-45.558 101.535-101.537c0-17.389-4.484-34.568-12.947-49.642-17.873-31.832-51.641-51.725-88.104-51.895h-0.484c-55.978 0-101.535 45.558-101.535 101.537zM162.27 5.896c-55.978 0-101.535 45.557-101.535 101.535 0 55.98 45.557 101.538 101.535 101.538h0.484c35.978-0.17 69.515-19.663 87.514-50.885 0.147-0.253 0.295-0.525 0.463-0.779 8.547-15.158 13.074-32.38 13.074-49.874 0-55.978-45.557-101.535-101.535-101.535zM593.61 442.673c0.631-16.063 3.662-32.019 8.99-47.177l-318.375-183.811c-23.493 27.451-56.377 46.503-91.85 53.348v365.916c35.999 6.861 69.325 26.419 92.86 54.525l317.365-183.221c-6.675-19.073-9.79-39.389-8.99-59.581zM753.963 347.327c-36.147 0-69.829 19.451-87.956 50.82-8.885 15.306-13.579 32.841-13.579 50.715s4.697 35.412 13.6 50.758c18.106 31.326 51.787 50.78 87.935 50.78 55.978 0 101.535-45.557 101.535-101.538 0-55.978-45.557-101.535-101.535-101.535z" />
<glyph unicode="&#xe94f;" horiz-adv-x="916" d="M753.955 533.553c-46.692 0-84.693-38.001-84.693-84.696s38.001-84.693 84.693-84.693c46.694 0 84.693 37.998 84.693 84.693s-37.998 84.696-84.693 84.696zM753.955 423.111c-14.188 0-25.746 11.558-25.746 25.746 0 14.19 11.558 25.748 25.746 25.748 14.19 0 25.748-11.558 25.748-25.748 0-14.188-11.558-25.746-25.748-25.746z" />
<glyph unicode="&#xe950;" horiz-adv-x="916" d="M246.965 788.568c0 46.695-37.999 84.695-84.693 84.695s-84.693-38-84.693-84.695c0-46.695 37.999-84.695 84.693-84.695s84.693 38 84.693 84.695zM136.525 788.568c0 14.189 11.558 25.747 25.747 25.747s25.747-11.558 25.747-25.747c0-14.189-11.558-25.747-25.747-25.747s-25.747 11.558-25.747 25.747z" />
<glyph unicode="&#xe951;" horiz-adv-x="916" d="M162.272 192.132c-46.694 0-84.693-38.001-84.693-84.696s37.999-84.696 84.693-84.696c46.694 0 84.693 38.001 84.693 84.696s-37.999 84.696-84.693 84.696zM162.272 81.688c-14.189 0-25.747 11.56-25.747 25.748 0 14.19 11.558 25.748 25.747 25.748s25.747-11.558 25.747-25.748c0-14.188-11.558-25.748-25.747-25.748z" />
<glyph unicode="&#xe952;" glyph-name="bear" horiz-adv-x="1170" d="M146.953 930.946c-202.892-57.63-90.812-362.689-4.818-370.028-19.442-96.497-30.446-193.474-28.896-292.169 0.812-51.814 117.426-133.541 240.8-196.652 72.263-105.911 192.265-106.116 231.166-107.074 38.905 0.958 158.907 1.163 231.172 107.074 123.374 63.111 239.985 144.834 240.801 196.652 1.547 98.695-9.457 195.672-28.899 292.169 85.994 7.34 198.075 312.399-4.816 370.028-64.991-3.342-127.1-36.919-187.824-85.081-109.539 45.015-165.486 47.157-250.434 47.157-84.941 0-140.888-2.142-250.43-47.154-60.722 48.16-122.832 81.737-187.822 85.079zM158.215 816.825c13.845 0.219 39.399-12.857 61.278-33.518 7.684-7.257-52.379-116.686-61.298-114.647-10.491 2.4-34.251 110.366-8.514 144.727 1.703 2.272 4.661 3.376 8.535 3.438zM1012.198 816.825c3.877-0.062 6.835-1.166 8.536-3.438 25.735-34.361 1.979-142.327-8.514-144.727-8.92-2.041-68.985 107.39-61.297 114.647 21.877 20.663 47.433 33.737 61.275 33.518zM415.971 629.196c39.899 0.695 70.14-55.873 96.091-101.887-122.445-36.293-188.741 39.106-132.005 86.346 12.807 10.663 24.741 15.346 35.913 15.543v-0.002zM754.443 629.196c11.173-0.194 23.106-4.878 35.913-15.541 56.737-47.24-9.56-122.64-132.005-86.346 25.951 46.011 56.188 102.582 96.091 101.887zM585.205 458.16c39.589-0.508 84.176-21.866 69.025-83.467-3.302-13.422-28.61-19.697-48.453-22.17v-20.509c228.308-94.003 181.866-316.705-20.571-316.705-202.434 0-248.876 222.702-20.571 316.705v20.509c-19.84 2.472-45.147 8.748-48.45 22.17-15.152 61.601 29.433 82.959 69.021 83.467z" />
<glyph unicode="&#xe953;" glyph-name="bid" horiz-adv-x="1097" d="M715.875 308.209c-6.857-187.633-178.491-333.714-178.491-333.714l-135.109 53.555c-63.018 25.143-86.538 65.28-114.995 126.833l-0.137 0.274 215.978-62.171-131.953 63.177c-94.927 45.44-134.561 107.703-175.453 204.687l307.359-118.857-288.456 174.241c-65.532 39.589-84.914 83.84-117.143 153.278l368.365-157.118-180.571 117.734c-194.766 122.447-212.251 193.852-278.697 337.144l413.715-260.251c117.712-74.011 300.687-159.84 295.589-298.812zM1090.549 538.291c0-15.704-40.024-47.66-46.515-47.133-8.455 0.709-105.761 63.656-141.553 81.554-34.286 17.119-135.749-2.904-146.721 97.852-25.143-64 24.616-206.194 63.634-274.696 80.962-142.102-58.767-335.064-232.686-425.143 24.251 24.521 46.643 50.809 66.995 78.651 25.933 35.138 47.788 73.114 65.141 113.189 20.571 48.457 32 97.006 33.671 144.296 1.119 35.401-7.395 70.437-24.642 101.372-14.833 27.429-35.975 53.486-64.64 79.839-49.92 45.923-114.286 84.367-171.246 118.264l-2.651 1.577c-13.327 25.143-19.727 48.594-10.993 68.023 61.052 135.794 230.696 213.76 379.838 198.537 48.457 58.24 95.751 50.469 95.751 50.469l-27.202-57.897c0 0 45.714 25.577 52.824 16.663l-37.669-70.171 31.817-42.354c0 0 116.846-218.444 116.846-232.89zM921.863 766.678c0 4.281-1.269 8.466-3.65 12.026-2.377 3.559-5.756 6.334-9.713 7.972-3.953 1.638-8.305 2.067-12.507 1.232-4.198-0.835-8.053-2.896-11.081-5.924s-5.091-6.884-5.925-11.083c-0.834-4.199-0.406-8.551 1.232-12.506s4.411-7.336 7.973-9.714c3.558-2.378 7.742-3.648 12.025-3.648 2.845-0.003 5.665 0.555 8.294 1.643 2.633 1.088 5.021 2.684 7.036 4.697 2.011 2.013 3.606 4.403 4.696 7.033 1.086 2.63 1.646 5.449 1.642 8.296l-0.022-0.023z" />
<glyph unicode="&#xe954;" glyph-name="minus" d="M784 496h-544c-26.509 0-48-21.491-48-48s21.491-48 48-48h544c26.509 0 48 21.491 48 48s-21.491 48-48 48z" />
<glyph unicode="&#xe955;" glyph-name="plus" horiz-adv-x="956" d="M546.133 925.858h-136.533v-409.6h-409.6v-136.533h409.6v-409.599h136.533v409.599h409.6v136.533h-409.6v409.6z" />
<glyph unicode="&#xe956;" glyph-name="brute1" horiz-adv-x="1063" d="M974.826 955.692c-67.846-101.654-145.847-151.615-291.462-149.538-16.957 23.311-39.607 42.372-66.011 55.55s-55.778 20.082-85.604 20.12c-29.865-0.002-59.286-6.889-85.732-20.069-26.449-13.18-49.136-32.259-66.115-55.601-145.384-2.077-223.499 47.931-291.23 149.538-69.9-104.838 48.554-255.922 258.923-259.384 1.424-23.424 7.78-46.338 18.692-67.385-321.83-45.001-386.492-485.77-351.461-660.923h184.616c0 110.769 36.923 258.462 147.692 332.308l-36.923-332.308c0-36.923 147.692-36.923 147.692 0 0 73.846 36.923 147.692 73.846 147.692s73.846-73.846 73.846-147.692c0-36.923 147.692-36.923 147.692 0l-36.923 332.308c110.769-73.846 147.692-221.538 147.692-332.308h184.615c35.076 175.153-29.538 616.155-351.693 660.923 10.992 21.031 17.428 43.945 18.922 67.385 210.231 3.462 328.848 154.523 258.924 259.384zM384.057 753.077c31.153-36.232 62.769-72.231 110.769-92.77 0 0-52.846-36.23-73.846-20.076-23.308 18.231-36.923 112.847-36.923 112.847zM679.442 753.077c0 0-13.615-94.616-36.923-112.847-21-16.154-73.846 20.076-73.846 20.076 48 20.539 79.614 56.539 110.769 92.77z" />
<glyph unicode="&#xe957;" glyph-name="ico-adobe" d="M373.067 723.736c3.562 9.242 9.933 17.205 18.265 22.827 8.33 5.622 18.225 8.636 28.361 8.637h184.547c10.141 0.003 20.043-3.005 28.382-8.629 8.337-5.622 14.715-13.588 18.277-22.835l199.258-517.39c2.83-7.34 3.789-15.239 2.796-23.020-0.992-7.779-3.907-15.21-8.492-21.654-4.588-6.443-10.709-11.708-17.843-15.343-7.136-3.635-15.068-5.533-23.119-5.53h-118.127c-10.138 0.002-20.031 3.016-28.363 8.637-8.33 5.622-14.703 13.585-18.263 22.827l-126.763 329.156-64.16-166.6h65.256c10.143 0.005 20.045-3.005 28.382-8.629 8.339-5.622 14.715-13.588 18.278-22.835l37.361-97.010c2.83-7.34 3.789-15.239 2.796-23.020-0.992-7.779-3.907-15.21-8.492-21.654-4.588-6.443-10.709-11.708-17.845-15.343-7.134-3.635-15.066-5.533-23.117-5.53h-329.972c-8.049 0.002-15.978 1.903-23.107 5.54-7.13 3.639-13.249 8.904-17.831 15.346-4.584 6.443-7.496 13.872-8.486 21.649s-0.031 15.674 2.797 23.011l199.224 517.39zM431.184 690.526l-186.738-485.052h282.083l-24.907 64.672h-101.721c-5.366 0.003-10.65 1.27-15.401 3.695-4.751 2.423-8.83 5.934-11.885 10.226-3.055 4.294-4.997 9.245-5.658 14.428-0.662 5.185-0.024 10.447 1.859 15.338l112.084 291.033c2.377 6.156 6.627 11.46 12.18 15.205 5.553 3.743 12.148 5.75 18.903 5.75s13.35-2.007 18.903-5.75c5.555-3.744 9.803-9.049 12.182-15.205l153.827-399.392h82.659l-186.805 485.052h-161.565z" />
<glyph unicode="&#xe958;" glyph-name="ico-bear" d="M115.337 885.155c-183.652-52.165-82.2-328.295-4.361-334.939-17.599-87.347-27.559-175.127-26.156-264.464 0.734-46.903 106.291-120.876 217.965-178.003 65.412-95.869 174.034-96.053 209.247-96.922 35.213 0.869 143.835 1.054 209.249 96.922 111.672 57.125 217.229 131.098 217.965 178.003 1.402 89.337-8.559 177.117-26.158 264.464 77.842 6.644 179.29 282.774-4.361 334.939-58.827-3.025-115.046-33.418-170.012-77.013-99.151 40.746-149.792 42.685-226.684 42.685-76.888 0-127.529-1.939-226.684-42.683-54.964 43.593-111.185 73.986-170.011 77.011zM125.531 781.856c12.532 0.199 35.663-11.638 55.467-30.339 6.956-6.569-47.412-105.62-55.485-103.775-9.497 2.172-31.004 99.9-7.707 131.002 1.541 2.056 4.219 3.056 7.726 3.112zM898.534 781.856c3.506-0.056 6.186-1.055 7.726-3.112 23.296-31.103 1.788-128.831-7.706-131.002-8.074-1.848-62.443 97.206-55.487 103.775 19.804 18.704 42.936 30.538 55.467 30.339zM358.843 612.018c36.119 0.629 63.488-50.575 86.982-92.225-110.834-32.851-170.844 35.4-119.487 78.159 11.592 9.65 22.392 13.891 32.505 14.068v-0.002zM665.22 612.018c10.113-0.175 20.913-4.416 32.505-14.066 51.359-42.759-8.649-111.010-119.487-78.159 23.494 41.649 50.865 92.854 86.982 92.225zM512.032 457.202c35.835-0.461 76.193-19.793 62.476-75.552-2.987-12.149-25.895-17.828-43.855-20.069v-18.563c206.657-85.089 164.617-286.674-18.621-286.674s-225.276 201.585-18.621 286.674v18.563c-17.959 2.24-40.868 7.92-43.855 20.069-13.715 55.759 26.642 75.091 62.476 75.552z" />
<glyph unicode="&#xe959;" glyph-name="ico-bid" d="M668.829 316.946c-6.429-175.907-167.336-312.858-167.336-312.858l-126.665 50.207c-59.077 23.572-81.128 61.2-107.807 118.908l-0.128 0.256 202.478-58.286-123.707 59.229c-88.993 42.6-126.149 100.972-164.485 191.892l288.15-111.428-270.429 163.35c-61.435 37.115-79.606 78.599-109.821 143.7l345.343-147.301-169.285 110.378c-182.593 114.794-198.986 181.736-261.278 316.072l387.858-243.986c110.356-69.385 281.893-149.85 277.115-280.135zM1020.085 532.646c0-14.722-37.52-44.679-43.606-44.186-7.929 0.664-99.151 59.679-132.709 76.456-32.143 16.051-127.263-2.721-137.549 91.736-23.572-59.999 23.078-193.306 59.657-257.529 75.9-133.221-55.093-314.121-218.143-398.57 22.733 22.989 43.727 47.634 62.808 73.735 24.313 32.942 44.8 68.542 61.071 106.114 19.286 45.429 30 90.942 31.565 135.28 1.051 33.185-6.934 66.033-23.1 95.035-13.908 25.715-33.728 50.143-60.601 74.851-46.799 43.050-107.141 79.093-160.543 110.872l-2.485 1.477c-12.493 23.572-18.492 45.557-10.308 63.771 57.236 127.308 216.28 200.4 356.101 186.129 45.427 54.6 89.763 47.314 89.763 47.314l-25.499-54.279c0 0 42.858 23.979 49.521 15.621l-35.313-65.786 29.828-39.707c0 0 109.542-204.793 109.542-218.336zM861.943 746.761c0 4.014-1.19 7.937-3.419 11.274-2.231 3.337-5.4 5.938-9.108 7.474s-7.788 1.938-11.725 1.155c-3.935-0.783-7.552-2.716-10.39-5.554s-4.771-6.454-5.553-10.39c-0.783-3.936-0.382-8.017 1.154-11.725s4.138-6.877 7.475-9.107c3.337-2.23 7.259-3.42 11.273-3.42 2.67-0.003 5.312 0.521 7.777 1.541 2.467 1.020 4.707 2.516 6.594 4.403s3.383 4.127 4.403 6.593c1.020 2.466 1.543 5.109 1.541 7.777l-0.022-0.021z" />
<glyph unicode="&#xe95a;" d="M1024 448c0-282.772-229.228-512-512-512-282.774 0-512 229.228-512 512 0 282.774 229.226 512 512 512 282.772 0 512-229.226 512-512z" />
<glyph unicode="&#xe95b;" d="M979.090 237.883v540.234c0 39.242-31.923 71.164-71.165 71.164h-770.96c-39.242 0-71.164-31.922-71.164-71.164v-581.235c87.813-155.717 254.743-260.89 446.259-260.89 207.89 0 386.834 123.907 467.031 301.891z" />
<glyph unicode="&#xe95c;" d="M207.183 792.117c0 23.398 11.352 44.187 28.836 57.164h-99.055c-39.242 0-71.164-31.922-71.164-71.164v-581.235c35.438-62.843 83.766-117.437 141.383-160.225v755.461z" />
<glyph unicode="&#xe95d;" d="M920.837 778.125c0 7.016-5.924 12.937-12.938 12.937h-770.961c-7.008 0-12.937-5.922-12.937-12.937v-664.149c42.063-48.812 93.18-89.585 150.742-119.749h474.578c67.415 35.328 125.978 85.21 171.517 145.508v638.39z" />
<glyph unicode="&#xe95e;" d="M207.156 791.063h-70.219c-7.008 0-12.937-5.922-12.937-12.937v-664.054c24.727-28.687 51.852-54.118 83.156-77.368v754.36z" />
<glyph unicode="&#xe95f;" d="M949.612 287.821h-150.774c-16.187 0-29.437 13.251-29.437 29.437v150.774c0 16.187 13.251 29.437 29.437 29.437h150.774c16.195 0 29.437-13.251 29.437-29.437v-150.774c0-16.187-13.243-29.437-29.437-29.437z" />
<glyph unicode="&#xe960;" d="M810.063 317.258v150.774c0 16.187 13.251 29.437 29.445 29.437h-40.671c-16.187 0-29.437-13.251-29.437-29.437v-150.774c0-16.187 13.251-29.437 29.437-29.437h40.671c-16.195 0-29.445 13.251-29.445 29.437z" />
<glyph unicode="&#xe961;" d="M844.966 692.741h-62.595c-8.929 0-16.172 7.242-16.172 16.173 0 8.937 7.242 16.179 16.172 16.179h62.595c8.937 0 16.179-7.242 16.179-16.179 0-8.931-7.242-16.173-16.179-16.173z" />
<glyph unicode="&#xe962;" d="M861.041 708.914c0 8.937-7.242 16.179-16.179 16.179h-17.789c-8.929 0-16.172-7.242-16.172-16.179 0-8.931 7.242-16.173 16.172-16.173h17.789c8.937 0 16.179 7.242 16.179 16.173z" />
<glyph unicode="&#xe963;" d="M133.25 604.093h-71.906c-8.992 0-16.344-8.422-16.344-18.711v-347.507c8.82-19.587 18.852-38.515 29.985-56.704h58.266c8.992 0 16.344 8.422 16.344 18.711v385.5c0 10.289-7.352 18.711-16.344 18.711z" />
<glyph unicode="&#xe964;" d="M937.121 203.594c-8.929 0-16.172 7.242-16.172 16.172v66.555c0 25.203-20.5 45.704-45.704 45.704-25.196 0-45.693-20.5-45.693-45.704v-66.555c0-8.929-7.242-16.172-16.182-16.172-8.929 0-16.172 7.242-16.172 16.172v66.555c0 43.039 35.008 78.054 78.047 78.054s78.047-35.016 78.047-78.054v-66.555c0.008-8.929-7.235-16.172-16.172-16.172z" />
<glyph unicode="&#xe965;" d="M909.98 317.125c0 10.578 8.571 19.149 19.141 19.149 2.54 0 4.961-0.509 7.173-1.408-14.305 17.961-36.344 29.509-61.048 29.509-43.031 0-78.047-35.016-78.047-78.054v-66.555c0-8.929 7.242-16.172 16.179-16.172 8.932 0 16.174 7.242 16.174 16.172v66.555c0 25.203 20.498 45.704 45.701 45.704 13.924 0 26.406-6.275 34.79-16.125-0.023 0.415-0.064 0.812-0.064 1.226z" />
<glyph unicode="&#xe966;" d="M874.217 396.626c-16.077 0-29.117-13.041-29.117-29.117v-79.703h58.227v79.703c0 16.077-13.030 29.117-29.11 29.117z" />
<glyph unicode="&#xe967;" d="M874.217 396.626c-16.077 0-29.117-13.041-29.117-29.117v-28.454c0-16.077 13.041-29.117 29.117-29.117 16.079 0 29.11 13.041 29.11 29.117v28.454c0 16.077-13.030 29.117-29.11 29.117z" />
<glyph unicode="&#xe968;" d="M953.172 233.469h-157.891c-14.234 0-25.882-11.648-25.882-25.884v-131.553c0-14.236 11.648-25.884 25.882-25.884h157.891c14.236 0 25.876 11.648 25.876 25.884v131.553c0 14.236-11.64 25.884-25.876 25.884z" />
<glyph unicode="&#xe969;" d="M807.736 76.032v131.553c0 14.236 11.648 25.884 25.882 25.884h-38.336c-14.234 0-25.882-11.648-25.882-25.884v-131.553c0-14.236 11.648-25.884 25.882-25.884h38.336c-14.234 0-25.882 11.648-25.882 25.884z" />
<glyph unicode="&#xe96a;" d="M872.824 197.466c-16-0.735-28.946-14.264-29.025-30.28-0.038-9.72 4.477-18.376 11.54-23.977 1.702-1.352 2.749-3.359 2.749-5.54v-10.063c0-8.617 6.5-16.141 15.101-16.694 9.423-0.609 17.249 6.851 17.249 16.141v10.304c0 2.368 1.149 4.547 2.985 6.031 6.892 5.578 11.305 14.093 11.305 23.649 0 17.303-14.428 31.242-31.905 30.428z" />
<glyph unicode="&#xe96b;" d="M872.748 197.466c-2.655-0.118-5.21-0.625-7.647-1.405 12.334-3.891 21.304-15.391 21.304-29.023 0-9.556-4.413-18.063-11.305-23.649-1.843-1.485-2.985-3.663-2.985-6.031v-10.304c0-5.517-2.765-10.368-6.984-13.289 2.289-1.618 5.007-2.657 7.985-2.852 9.413-0.609 17.249 6.851 17.249 16.141v10.304c0 2.368 1.142 4.547 2.985 6.031 6.889 5.586 11.305 14.093 11.305 23.649 0 17.303-14.431 31.242-31.908 30.428z" />
<glyph unicode="&#xe96c;" d="M572.526 213.583c-98.132-56.655-224.072-22.915-280.735 75.226-56.656 98.132-22.915 224.072 75.226 280.727 98.14 56.666 224.072 22.915 280.735-75.218 56.655-98.14 22.915-224.072-75.226-280.735z" />
<glyph unicode="&#xe96d;" d="M393.638 347.571c-46.446 80.445-32.133 179.561 28.595 243.896-18.931-4.49-37.524-11.748-55.219-21.96-98.132-56.663-131.884-182.602-75.22-280.735 56.658-98.14 182.595-131.884 280.735-75.226 17.687 10.217 33.275 22.694 46.625 36.836-86.077-20.424-179.069 16.742-225.516 97.188z" />
<glyph unicode="&#xe96e;" d="M392.453 525.573c-73.905-42.67-99.32-137.516-56.648-211.42 42.673-73.915 137.516-99.328 211.423-56.65 73.905 42.673 99.32 137.516 56.655 211.423-42.673 73.915-137.523 99.32-211.43 56.648z" />
<glyph unicode="&#xe96f;" d="M376.709 515.251c-61.655-46.305-80.507-132.664-41.006-201.080 39.506-68.421 123.717-95.273 194.639-65.029-55.562 11.412-106.204 45.586-136.735 98.46-30.523 52.874-34.796 113.82-16.899 167.649z" />
<glyph unicode="&#xe970;" d="M545.91 424.75c0 23.79-17.656 43.515-40.553 46.797v16.579c0 7.788-6.305 14.093-14.095 14.093-7.78 0-14.093-6.305-14.093-14.093v-16.087h-16.914v16.087c0 7.788-6.305 14.093-14.093 14.093-7.782 0-14.095-6.305-14.095-14.093v-16.087h-24.274c-7.788 0-14.093-6.313-14.093-14.093 0-7.79 6.305-14.093 14.093-14.093h5.627v-38.213h-5.627c-7.788 0-14.093-6.31-14.093-14.093s6.305-14.093 14.093-14.093h5.627v-38.213h-5.627c-7.788 0-14.093-6.303-14.093-14.093 0-7.78 6.305-14.093 14.093-14.093h24.274v-16.087c0-7.788 6.313-14.093 14.095-14.093 7.788 0 14.093 6.305 14.093 14.093v16.087h16.914v-16.087c0-7.788 6.313-14.093 14.093-14.093 7.79 0 14.095 6.305 14.095 14.093v16.579c22.897 3.282 40.553 23.014 40.553 46.804 0 12.923-5.217 24.648-13.655 33.196 8.438 8.548 13.655 20.273 13.655 33.203zM441.605 443.853h57.016c10.532 0 19.103-8.571 19.103-19.103 0-10.54-8.571-19.11-19.103-19.11h-57.016v38.213zM498.621 339.251h-57.016v38.203h57.016c10.532 0 19.103-8.571 19.103-19.103s-8.571-19.1-19.103-19.1z" />
<glyph unicode="&#xe971;" d="M478.387 339.251h-36.782v38.203h34.596c-12.242 5.404-12.252 22.781 0 28.186h-34.596v38.213h34.276c-12.157 5.701-11.697 23.094 0.671 28.186h-16.289v16.087c0 7.78-6.313 14.093-14.093 14.093-7.79 0-14.095-6.313-14.095-14.093v-16.087h-24.282c-7.78 0-14.093-6.313-14.093-14.093 0-7.79 6.313-14.093 14.093-14.093h5.627v-38.213h-5.627c-7.78 0-14.093-6.31-14.093-14.093s6.313-14.093 14.093-14.093h5.627v-38.213h-5.627c-7.78 0-14.093-6.303-14.093-14.093 0-7.78 6.313-14.093 14.093-14.093h24.282v-16.095c0-7.78 6.305-14.093 14.095-14.093 7.78 0 14.093 6.313 14.093 14.093v16.095h14.438c-11.86 6.881-9.516 24.632 3.686 28.196z" />
<glyph unicode="&#xe972;" d="M97.297 376.038c-23.695 0-43.961 14.625-52.297 35.336v-173.46c8.828-19.587 18.852-38.515 29.985-56.701h58.266c8.992 0 16.344 8.42 16.344 18.708v211.453c-8.336-20.71-28.602-35.336-52.297-35.336z" />
<glyph unicode="&#xe973;" d="M1024 448c0-282.772-229.228-512-512-512-282.774 0-512 229.228-512 512 0 282.774 229.226 512 512 512 282.772 0 512-229.226 512-512z" />
<glyph unicode="&#xe974;" d="M511.946 960c-23.734 0-43.046-19.305-43.046-43.039 0-18.68 11.96-34.602 28.618-40.555v-131.195c0-7.969 6.459-14.422 14.428-14.422s14.423 6.453 14.423 14.422v131.195c16.663 5.953 28.616 21.875 28.616 40.555 0 23.734-19.313 43.039-43.039 43.039zM511.946 931.141c7.821 0 14.18-6.359 14.18-14.18 0-7.828-6.359-14.188-14.18-14.188-7.828 0-14.188 6.359-14.188 14.188 0 7.82 6.359 14.18 14.188 14.18z" />
<glyph unicode="&#xe975;" d="M886.897 705.563c5.944-16.656 21.868-28.617 40.548-28.617 23.734 0 43.039 19.313 43.039 43.046 0 23.727-19.305 43.039-43.039 43.039-18.68 0-34.611-11.961-40.548-28.617h-102.915c-3.827 0-7.498-1.516-10.202-4.227l-61.837-61.836c-9.116-9.119-2.54-24.632 10.196-24.632 10.639 0 9.475 5.571 67.82 61.843h39.311v-67.314c0-7.967 6.461-14.428 14.431-14.428h63.117c7.969 0 14.431 6.461 14.431 14.428 0 7.962-6.461 14.423-14.431 14.423h-48.689v52.891h28.767zM927.444 734.172c7.818 0 14.18-6.359 14.18-14.18 0-7.828-6.362-14.187-14.18-14.187-7.828 0-14.188 6.359-14.188 14.187 0 7.821 6.359 14.18 14.188 14.18z" />
<glyph unicode="&#xe976;" d="M1023.831 462.423h-76.429c-5.947 16.655-21.868 28.608-40.548 28.608-18.673 0-34.601-11.953-40.538-28.608h-57.088c-7.967 0-14.428-6.461-14.428-14.431s6.461-14.431 14.428-14.431h57.088c5.944-16.655 21.865-28.608 40.538-28.608 18.68 0 34.609 11.953 40.548 28.608h76.429c0.133 4.797 0.21 9.603 0.21 14.431s-0.077 9.633-0.21 14.431zM906.854 433.805c-7.821 0-14.18 6.367-14.18 14.188s6.359 14.188 14.18 14.188c7.828 0 14.188-6.367 14.188-14.188s-6.359-14.188-14.188-14.188z" />
<glyph unicode="&#xe977;" d="M626.23 707.961c7.969 0 14.431 6.461 14.431 14.43v95.859h81.49c7.969 0 14.431 6.461 14.431 14.43v41.242h59.64c-15.68 10.484-31.977 20.125-48.812 28.859h-25.26c-7.967 0-14.428-6.461-14.428-14.43v-41.242h-81.492c-7.969 0-14.431-6.461-14.431-14.43v-110.289c0.008-7.969 6.461-14.43 14.431-14.43z" />
<glyph unicode="&#xe978;" d="M843.689 272.187c-7.969 0-14.431-6.461-14.431-14.428v-67.313h-39.311l-57.618 57.608c-5.632 5.635-14.766 5.635-20.398 0-5.642-5.632-5.642-14.764 0-20.406l61.837-61.834c2.701-2.703 6.374-4.227 10.202-4.227h102.915c5.944-16.658 21.868-28.618 40.548-28.618 23.734 0 43.039 19.313 43.039 43.046s-19.305 43.039-43.039 43.039c-18.68 0-34.611-11.953-40.548-28.608h-28.767v67.313c0 7.967-6.459 14.428-14.428 14.428zM927.432 190.203c7.818 0 14.177-6.367 14.177-14.188s-6.359-14.188-14.177-14.188c-7.828 0-14.188 6.367-14.188 14.188s6.359 14.188 14.188 14.188z" />
<glyph unicode="&#xe979;" d="M951.329 304.556c7.969 0 14.431 6.459 14.431 14.42 0 7.969-6.461 14.431-14.431 14.431h-44.508c-7.959 0-14.42-6.461-14.42-14.431 0-7.962 6.461-14.42 14.42-14.42h44.508z" />
<glyph unicode="&#xe97a;" d="M855.921 571.282c-7.967 0-14.42-6.461-14.42-14.431s6.454-14.428 14.42-14.428h44.508c7.969 0 14.431 6.459 14.431 14.428s-6.461 14.431-14.431 14.431h-44.508z" />
<glyph unicode="&#xe97b;" d="M717.629 738.492c7.969 0 14.423 6.461 14.423 14.422v25.789c0 7.961-6.454 14.422-14.423 14.422s-14.428-6.461-14.428-14.422v-25.789c0-7.961 6.459-14.422 14.428-14.422z" />
<glyph unicode="&#xe97c;" d="M736.573 22.226v41.242c0 7.969-6.461 14.431-14.431 14.431h-81.49v95.859c0 7.969-6.454 14.431-14.423 14.431s-14.431-6.461-14.431-14.431v-110.29c0-7.967 6.461-14.42 14.431-14.42h81.492v-41.249c0-7.969 6.461-14.431 14.428-14.431h25.492c16.822 8.742 33.096 18.376 48.765 28.859h-59.835z" />
<glyph unicode="&#xe97d;" d="M703.201 117.422c0-7.969 6.459-14.431 14.428-14.431s14.431 6.461 14.431 14.431v25.782c0 7.969-6.461 14.42-14.431 14.42s-14.428-6.451-14.428-14.42v-25.782z" />
<glyph unicode="&#xe97e;" d="M608.922 902.523h30.781c7.969 0 14.431 6.461 14.431 14.43s-6.461 14.422-14.431 14.422h-30.781c-7.962 0-14.42-6.453-14.42-14.422s6.451-14.43 14.42-14.43z" />
<glyph unicode="&#xe97f;" d="M526.369 19.594v131.195c0 7.969-6.454 14.431-14.423 14.431s-14.428-6.461-14.428-14.431v-131.195c-16.658-5.955-28.618-21.875-28.618-40.548 0-23.734 19.313-43.046 43.046-43.046 23.736 0 43.039 19.313 43.039 43.046 0 18.673-11.96 34.593-28.616 40.548zM511.946-35.141c-7.828 0-14.188 6.359-14.188 14.18 0 7.828 6.359 14.188 14.188 14.188 7.821 0 14.18-6.359 14.18-14.188 0-7.821-6.359-14.18-14.18-14.18z" />
<glyph unicode="&#xe980;" d="M639.711-6.531h-30.781c-7.969 0-14.428-6.461-14.428-14.431s6.459-14.42 14.428-14.42h30.781c7.969 0 14.431 6.451 14.431 14.42s-6.461 14.431-14.431 14.431z" />
<glyph unicode="&#xe981;" d="M53.5 176.015c0-23.734 19.305-43.046 43.039-43.046 18.672 0 34.601 11.96 40.547 28.618h102.914c3.828 0 7.492 1.523 10.203 4.227l61.835 61.834c5.635 5.642 5.635 14.774 0 20.406-5.632 5.635-14.766 5.635-20.406 0l-57.609-57.608h-39.312v67.313c0 7.967-6.461 14.428-14.43 14.428s-14.43-6.461-14.43-14.428v-67.313h-28.766c-5.945 16.655-21.867 28.608-40.547 28.608-23.735 0-43.039-19.305-43.039-43.039zM96.539 190.203c7.828 0 14.188-6.367 14.188-14.188s-6.36-14.188-14.188-14.188c-7.82 0-14.18 6.367-14.18 14.188-0.008 7.821 6.36 14.188 14.18 14.188z" />
<glyph unicode="&#xe982;" d="M214.812 462.423h-57.078c-5.945 16.655-21.875 28.608-40.547 28.608-18.68 0-34.609-11.953-40.547-28.608h-76.43c-0.133-4.797-0.211-9.603-0.211-14.431s0.078-9.633 0.211-14.431h76.43c5.945-16.655 21.875-28.608 40.547-28.608s34.601 11.953 40.547 28.608h57.078c7.969 0 14.43 6.461 14.43 14.431s-6.461 14.431-14.43 14.431zM117.188 433.805c-7.828 0-14.188 6.367-14.188 14.188s6.359 14.188 14.188 14.188c7.82 0 14.18-6.367 14.18-14.188s-6.359-14.188-14.18-14.188z" />
<glyph unicode="&#xe983;" d="M194.711 638.241v67.313h39.312l57.617-57.608c5.632-5.635 14.766-5.635 20.398 0 5.642 5.632 5.642 14.764 0 20.406l-61.835 61.836c-2.703 2.703-6.375 4.227-10.203 4.227h-102.914c-5.945 16.656-21.867 28.617-40.547 28.617-23.735 0-43.039-19.313-43.039-43.047s19.305-43.038 43.039-43.038c18.68 0 34.609 11.96 40.547 28.609h28.773v-52.883h-48.695c-7.969 0-14.43-6.461-14.43-14.431 0-7.967 6.461-14.428 14.43-14.428h63.117c7.969 0 14.43 6.461 14.43 14.428zM96.539 705.797c-7.82 0-14.18 6.367-14.18 14.188s6.36 14.188 14.18 14.188c7.828 0 14.188-6.367 14.188-14.188s-6.36-14.188-14.188-14.188z" />
<glyph unicode="&#xe984;" d="M287.439 873.922v-41.242c0-7.969 6.461-14.43 14.431-14.43h81.492v-95.859c0-7.969 6.454-14.43 14.423-14.43 7.967 0 14.428 6.461 14.428 14.43v110.289c0 7.969-6.461 14.43-14.428 14.43h-81.492v41.242c0 7.969-6.461 14.43-14.431 14.43h-25.257c-16.837-8.734-33.126-18.375-48.805-28.859h59.639z" />
</font>
</defs>
</svg>
